Loading...
Error

Борис Гребенщиков - Акустический концерт в костеле Святой Котрины (2009) DVDRip (Профессиональная съемка литовского телевидения) [2009 г., Русский рок, DVDRip]

Ответить на тему
 
Автор Сообщение

denfan

Стаж: 9 лет

Сообщений: 2

Россия

Режим только чтение: НЕТ

post 22-Мар-2011 23:33

Quote

Борис Гребенщиков - Акустический концерт в костеле Святой Котрины (2009) DVDRip

Год выпуска: 2009
Страна: россия
Жанр: Русский рок
Продолжительность: 01:15:12
Перевод: Не требуется

Режиссер: Профессиональная съемка литовского телевидения

В ролях: БГ

Описание: Акустический концерт в Вильнюсе в костеле Святой Котрины состоялся 16 июня 2009 года. Профессиональная съемка литовского телевидения. Диск распространялся на концертах. Качество отменное, атмосфера потрясающая.

Доп. информация: Треклист:

01. Лошадь белая
02. Дуй
03. Ещё один раз
04. Анютины глазки и божьи коровки
05. Неизъяснимо
06. Девушка с веслом
07. Слово Паисия Пчельника
08. Акуна матата
09. Аригато
10. Что нам делать с пьяным матросом?
11. Болота Невы
12. Почему не падает небо
13. Самый быстрый самолет
14. Мария
15. Три сестры
16. Город
17. Максим-Лесник
18. Дубровский
19. Сокол

Качество: DVDRip

Формат: AVI
Видео кодек: XviD
Аудио кодек: MPEG Audio
Видео: Идентификатор : 0
Формат : MPEG-4 Visual
Профиль формата : Advanced Simple@L5
Параметр BVOP формата : 1
Параметр QPel формата : Нет
Параметр GMC формата : Без точки перехода
Параметр матрицы формата : Default (H.263)
Идентификатор кодека : XVID Идентификатор кодека/Подсказка : XviD
Продолжительность : 1 ч. 15 м.
Битрейт : 2500 Кбит/сек
Ширина : 720 пикс.
Высота : 360 пикс.
Соотношение сторон : 2,000
Частота кадров : 25,000 кадр/сек
Цветовое пространство : YUV
Подвыборка цветности : 4:2:0
Битовая глубина : 8 бит
Тип развёртки : Прогрессивная
Метод сжатия : С потерями Бит/(Пиксели*Кадры) : 0.386
Размер потока : 1,31 Гбайт (91%)
Библиотека кодирования : XviD 1.2.1 (UTC 2008-12-04)

Аудио:
Идентификатор : 1
Формат : MPEG Audio
Версия формата : Version 1
Профиль формата : Layer 2
Идентификатор кодека : 50
Продолжительность : 1 ч. 15 м.
Вид битрейта : Постоянный Битрейт : 224 Кбит/сек
Канал(ы) : 2 канала(ов)
Частота : 48,0 КГц
Метод сжатия : С потерями
Размер потока : 121 Мбайт (8%)
Выравнивание : Соединение по промежуткам
Продолжительность промежутка : 40 мс. (1,00 видеокадр)
Время предзагрузки промежутка : 504 ms


Последний раз редактировалось: denfan (23-03-2011 23:52), всего редактировалось 1 раз
Вне форума Profile PM

goblinXXX

Стаж: 9 лет

Сообщений: 22

Откуда: Череповец

СССР

Режим только чтение: НЕТ

post 23-Мар-2011 00:45 (спустя 1 час 12 минут)

Quote

Поглядим, поглядим... Докачается - поддержу с раздачей
Вне форума Profile PM
Показать сообщения:    
Ответить на тему

Текущее время: 21-Авг 05:58

Часовой пояс: GMT + 3



Вы не можете начинать темы
Вы не можете отвечать на сообщения
Вы не можете редактировать свои сообщения
Вы не можете удалять свои сообщения
Вы не можете голосовать в опросах
Вы не можете прикреплять файлы к сообщениям
Вы не можете скачивать файлы
Рейтинг торрент трекеров - UpTracker.ru Анализ веб сайта Яндекс.Метрика
службы мониторинга серверов