Loading...
Error

Пункт назначения 4 in 3Д / The Final Destination 4 in 3D (Дэвид Р. Эллис / David R. Ellis) [2009 г., ужасы, триллер, ..., HDDVDRip]

Ответить на тему
 
Автор Сообщение

SkitOn

Стаж: 6 лет 7 месяцев

Сообщений: 38

Откуда: С небес)

Украина

Режим только чтение: НЕТ

post 14-Май-2011 10:13

Quote

Пункт назначения 4 in 3Д / The Final Destination 4 in 3D


«Упокой их, Господи... По частям»


Год выпуска: 2009
Страна: США
Жанр: ужасы, триллер, ...
Продолжительность: 82 мин.
Перевод: Профессиональный (полное дублирование)



Режиссер: Дэвид Р. Эллис / David R. Ellis
Продюсер: Крэйг Перри, Уоррен Зайд, Ричард Бренер, ...
Сценарий: Эрик Бресс, Джеффри Реддик
Бюджет: $40 000 000
Премьера в мире: 26 августа 2009





В ролях:
Криста Аллен, Ник Зано, Бобби Кампо, Шантель Ван Сантен, Майкелти Уильямсон, Стефани Онор, Хейли Уэбб, Ребекка Ньюман, Эндрю Фисцелла, Билли Слотер



Описание:
История на этот раз вращается вокруг Ника О`Бэннона, к молодому человеку приходит видение — на автогонках произойдет ужасная трагедия, жертвами которой станут его друзья и он сам. Как и прежде группе счастливчиков, благодаря Нику, удается выжить, но смерть вовсе не спешит вычеркивать их из своего списка.





Качество: HDDVDRip
Формат: MKV
Формат 3D: Anaglyph / Анаглиф red'cyan
Видео кодек: H.26x
Аудио кодек: AC3
Видео: AVC; 1024x424; 23.976 fps; 2343 Kbps; 16:9
Аудио: AC3; 384 Kbps; 48.0 KHz; 6ch; (Front: L C R, Side: L R, LFE)-++


Для просмотра 3D требуются анаглифные очки

General
UniqueID : 205604881988402328077422742473528224729 (0x9AAE0F552BF39ABE8470225D3E32ABD9)
Complete name : D:\incoming\Final_Destination_3D.mkv
Format : Matroska
File size : 1.59 GiB
Duration : 1h 21mn
Overall bit rate : 2 782 Kbps
Encoded date : UTC 2011-03-23 04:25:57
Writing application : mkvmerge v3.3.0 ('Language') built on Mar 24 2010 14:59:24
Writing library : libebml v0.8.0 + libmatroska v0.9.0

Video
ID : 1
Format : AVC
Format/Info : Advanced Video Codec
Format profile : High@L3.1
Format settings, CABAC : Yes
Format settings, ReFrames : 8 frames
Codec ID : V_MPEG4/ISO/AVC
Duration : 1h 21mn
Bit rate : 2 343 Kbps
Nominal bit rate : 2 498 Kbps
Width : 1 024 pixels
Height : 424 pixels
Display aspect ratio : 2.40:1
Frame rate : 23.976 fps
Color space : YUV
Chroma subsampling : 4:2:0
Bit depth : 8 bits
Scan type : Progressive
Bits/(Pixel*Frame) : 0.225
Stream size : 1.34 GiB (84%)
Writing library : x264 core 92 r1510 33d382a
Encoding settings : cabac=1 / ref=8 / deblock=1:-1:-1 / analyse=0x3:0x133 / me=umh / subme=7 / psy=1 / psy_rd=1.00:0.10 / mixed_ref=1 / me_range=16 / chroma_me=1 / trellis=2 / 8x8dct=1 / cqm=0 / deadzone=21,11 / fast_pskip=0 / chroma_qp_offset=-3 / threads=3 / sliced_threads=0 / nr=0 / decimate=1 / interlaced=0 / constrained_intra=0 / bframes=3 / b_pyramid=2 / b_adapt=2 / b_bias=0 / direct=1 / wpredb=1 / wpredp=2 / keyint=250 / keyint_min=25 / scenecut=40 / intra_refresh=0 / rc_lookahead=50 / rc=abr / mbtree=1 / bitrate=2498 / ratetol=1.0 / qcomp=0.60 / qpmin=10 / qpmax=51 / qpstep=4 / ip_ratio=1.40 / aq=1:1.00

Audio
ID : 2
Format : AC-3
Format/Info : Audio Coding 3
Mode extension : CM (complete main)
Codec ID : A_AC3
Duration : 1h 21mn
Bit rate mode : Constant
Bit rate : 384 Kbps
Channel(s) : 6 channels
Channel positions : Front: L C R, Side: L R, LFE
Sampling rate : 48.0 KHz
Bit depth : 16 bits
Compression mode : Lossy
Stream size : 225 MiB (14%)


Последний раз редактировалось: SkitOn (14-05-2011 15:22), всего редактировалось 1 раз
Вне форума Profile PM
Показать сообщения:    
Ответить на тему

Текущее время: 13-Дек 16:01

Часовой пояс: GMT + 3



Вы не можете начинать темы
Вы не можете отвечать на сообщения
Вы не можете редактировать свои сообщения
Вы не можете удалять свои сообщения
Вы не можете голосовать в опросах
Вы не можете прикреплять файлы к сообщениям
Вы не можете скачивать файлы
Рейтинг торрент трекеров - UpTracker.ru Анализ веб сайта Яндекс.Метрика
службы мониторинга серверов