Loading...
Error

Без истерики! / Hysteria (Таня Уэкслер / Tanya Wexler) [2011, Германия, Франция, Великобритания, Люксембург, Мелодрама, комедия, DVDRip-AVC] DUB R5

Ответить на тему
 
Автор Сообщение

oartemka178

Стаж: 8 лет 9 месяцев

Сообщений: 129

Россия

Режим только чтение: НЕТ

post 17-Дек-2011 14:44

Quote

Без истерики! / Hysteria

Год выпуска: 2011
Страна: Германия , Франция , Великобритания , Люксембург
Жанр: мелодрама, комедия
Продолжительность: 01:35:07
Перевод: Профессиональный (дублированный), Лицензия
Русские субтитры: нет

премьера (мир):15 сентября 2011, ...
премьера (РФ): 17 ноября 2011, «Каравелла DDC»



Режиссер: Таня Уэкслер / Tanya Wexler

В ролях: Фелисити Джонс, Мэгги Джилленхол, Хью Дэнси, Руперт Эверетт, Джонатан Прайс, Джемма Джонс, Анна Чэнселлор, Тобиаш Мензес, Шеридан Смит, Кейт Линдер

Описание: Викторианская Англия, 1880 год. Выпускник медицинской школы Мортимер Грэнвиль устраивается на работу в кабинет доктора Далримпла, который славится на весь Лондон уникальным методом лечения «истерии» — женского перевозбуждения — с помощью интимного массажа. Популярность «ручного» метода Далримпла растет с астрономической скоростью, и справляться с наплывом страждущих пациенток становится все сложнее....




kinopoisk.ru
Качество: DVDRip-AVC [Рип с DVD9]
Формат: MKV
Видео кодек:x264
Аудио кодек:AC3
Видео: 720x304 at 25 fps, x264@L4.1, 2pass, ~1805 kbps avg
Аудио : Русский: 48 kHz, AC3, 3/2 (L,C,R,l,r) + LFE ch, ~384.00 kbps avg |Профессиональный (дублированный), Лицензия|
Формат : Matroska
Версия формата : Version 2
Размер файла : 1,45 Гбайт
Продолжительность : 1 ч. 35 м.
Общий поток : 2189 Кбит/сек
Дата кодирования : UTC 2011-12-05 14:07:29
Программа кодирования : mkvmerge v4.9.1 ('Ich will') сборка от Jul 11 2011 23:53:15
Библиотека кодирования : libebml v1.2.1 + libmatroska v1.1.1
Видео
Идентификатор : 1
Формат : AVC
Формат/Информация : Advanced Video Codec
Профиль формата : High@L4.1
Параметр CABAC формата : Да
Параметр ReFrames формата : 11 кадров
Идентификатор кодека : V_MPEG4/ISO/AVC
Продолжительность : 1 ч. 35 м.
Битрейт : 1805 Кбит/сек
Ширина : 720 пикселей
Высота : 304 пикселя
Соотношение сторон : 2,35:1
Частота кадров : 25,000 кадров/сек
Цветовое пространство : YUV
Субдискретизация насыщенности : 4:2:0
Битовая глубина : 8 бит
Тип развёртки : Прогрессивная
Бит/(Пиксели*Кадры) : 0.330
Размер потока : 1,17 Гбайт (80%)
Библиотека кодирования : x264 core 116 r2074 2641b9e
Настройки программы : cabac=1 / ref=11 / deblock=1:-2:-2 / analyse=0x3:0x113 / me=umh / subme=9 / psy=1 / psy_rd=1.10:0.10 / mixed_ref=1 / me_range=32 / chroma_me=1 / trellis=2 / 8x8dct=1 / cqm=0 / deadzone=21,11 / fast_pskip=0 / chroma_qp_offset=-3 / threads=6 / sliced_threads=0 / nr=0 / decimate=1 / interlaced=0 / bluray_compat=0 / constrained_intra=0 / bframes=10 / b_pyramid=2 / b_adapt=2 / b_bias=0 / direct=1 / weightb=1 / open_gop=0 / weightp=2 / keyint=250 / keyint_min=25 / scenecut=40 / intra_refresh=0 / rc=2pass / mbtree=0 / bitrate=1805 / ratetol=1.0 / qcomp=0.60 / qpmin=0 / qpmax=69 / qpstep=4 / cplxblur=20.0 / qblur=0.5 / ip_ratio=1.40 / pb_ratio=1.30 / aq=1:1.00
Аудио
Идентификатор : 2
Формат : AC-3
Формат/Информация : Audio Coding 3
Расширение режима : CM (complete main)
Идентификатор кодека : A_AC3
Продолжительность : 1 ч. 35 м.
Вид битрейта : Постоянный
Битрейт : 384 Кбит/сек
Каналы : 6 каналов
Расположение каналов : Front: L C R, Side: L R, LFE
Частота : 48,0 КГц
Битовая глубина : 16 бит
Метод сжатия : С потерями
Размер потока : 261 Мбайт (18%)
Заголовок : Dub
Язык : Russian







Раздача мультитрекерная, при нуле сидов (раздающих) можете смело скачивать этот релиз!
Вне форума Profile PM
Показать сообщения:    
Ответить на тему

Текущее время: 14-Ноя 01:47

Часовой пояс: GMT + 3



Вы не можете начинать темы
Вы не можете отвечать на сообщения
Вы не можете редактировать свои сообщения
Вы не можете удалять свои сообщения
Вы не можете голосовать в опросах
Вы не можете прикреплять файлы к сообщениям
Вы не можете скачивать файлы
Рейтинг торрент трекеров - UpTracker.ru Анализ веб сайта Яндекс.Метрика
службы мониторинга серверов