Loading...
Error

(Neo-Rock) Банк-А - 2009, MP3, VBR 192-320 kbps

Ответить на тему
 
Автор Сообщение

Zёlik

Стаж: 8 лет 6 месяцев

Сообщений: 17

Украина

Режим только чтение: НЕТ

post 23-Дек-2011 00:55

Quote

Банк-А


Страна: Россия
Жанр: Neo-Rock
Год выпуска: 2009-2010
Формат: MP3
Битрейт аудио: VBR 192-320 kbps
Продолжительность: 01:00:00 + Видеоклип 00:04:25


Все началось с того, что человек, которого сейчас все зовут Банкир, сказал самому себе: "СТОП!". Остановился и задумался о том, как и в каком мире он живет. И этот мир, и эта жизнь словно разделились на "до" и "после". Словно стерли капли с запотевшего стекла. И сквозь него стало отчетливо видно общество, которое потеряло ориентиры и поменяло жизненные ценности на позицию "После нас хоть потоп"
Так появилось сегодня. Так появилась группа "Банк-А" . И так появилась музыка, которая не укладывается в формат. Родился совершенно новый стиль, как называют его сами музыканты - социально-направленный нео-рок". Сегодня уже нельзя быть "просто музыкантом", так же как нельзя петь "просто песни". Каждый текст должен быть не просто прочувствован, но и осмыслен. Наша музыка для тех, кто понимает разницу между"слушать"и"слышать".
Многие отмечают минор, которым наполнены песни группы "Банк-А". С точки зрения большинства музыкальных критиков он абсолютен. Но, ведь именно так звучит беспокойство, переживание, если хотите, боль за то, что происходит в этом мире. Однако в этих песнях нет даже ноты безысходности. Более того, если вслушаться, то можно почувствовать, какой силой и надеждой наполнены они. Можно ощутить, как сквозь минорную гармонию пробивается мажорный лад.
"Банк-А" - это больше, чем просто музыкальный коллектив. Это сублимация идеи. Музыканты утверждают: "Все акции и программы, проводимые различными фондами и организациями современной России, все социальные рекламы, направлены на борьбу со "следствиями" (детские дома, наркомания, алкоголизм, насилие над детьми и многое другое). Только бессмысленно бороться со "следствиями", не искореняя "причин"...
"Причина" же в том, что нас всех научили жить по ложным правилам, и мы стали такими, какие есть - глухими, слепыми и беспомощными!!! Однажды поняв это, станешь навсегда другим. "Банк-А" заявляют: "Мы хотим изменить мир, начав с себя. И если мы и наши слушатели станем добрее, честнее, внимательнее друг к другу, то мир тоже станет лучше и прекраснее".
Естественно, музыкантам молодой группы задают много самых банальных, но вполне естественных вопросов: "Кто вы, чего хотите и почему так, а не иначе". "Самого главного глазами не увидишь". Эта фраза из поэтической сказки Антуана де Сент-Экзюпери "Маленький принц" является ответом на вопрос, почему музыканты выступают в масках. Точнее одним из ответов."Неважно, кто ты и как выглядишь, важно, что ты несешь миру"... "Неважно кто ты, важно какой ты"... Можно выбрать объяснение, которое больше нравится. Все будет правдой."
Группа распалась по непонятным причинам,оставив после себя миллионы поклонников не только в СНГ но и во всём мире ...
Официальный сайт группы
01. Банк-А - Ангел
02. Банк-А - Воля облаков
03. Банк-А - Жить
04. Банк-А - Исповедь (Live)
05. Банк-А - Крылья (test mix.)
06. Банк-А - Мир
07. Банк-А - Переулки (Акустика)
08. Банк-А - Правило (Live)
09. Банк-А - Радуга (Live)
10. Банк-А - Реквием (Live)
11. Банк-А - Реквием
12. Банк-А - Рокировка (Live)
13. Банк-А - Рокировка
14. Банк-А - Стая
15. Банк-А - Территория
16. Банк-А - Эй, где-то там
Добавлен видеоклип в раздачу
Банк-А - Эй где-то там
General
Format : MPEG-PS
File size : 234 MiB
Duration : 4mn 25s
Overall bit rate : 7 384 Kbps
Video #224
ID : 224 (0xE0)
Format : MPEG Video
Format version : Version 2
Format profile : Main@Main
Format settings, BVOP : Yes
Format settings, Matrix : Custom
Format settings, GOP : M=3, N=12
Duration : 4mn 25s
Bit rate mode : Variable
Bit rate : 6 853 Kbps
Nominal bit rate : 10 000 Kbps
Width : 720 pixels
Height : 576 pixels
Display aspect ratio : 16:9
Frame rate : 25.000 fps
Standard : PAL
Color space : YUV
Chroma subsampling : 4:2:0
Bit depth : 8 bits
Scan type : Progressive
Compression mode : Lossy
Bits/(Pixel*Frame) : 0.661
Stream size : 217 MiB (93%)
Audio #192
ID : 192 (0xC0)
Format : MPEG Audio
Format version : Version 1
Format profile : Layer 2
Duration : 4mn 25s
Bit rate mode : Constant
Bit rate : 384 Kbps
Channel(s) : 2 channels
Sampling rate : 48.0 KHz
Compression mode : Lossy
Stream size : 12.1 MiB (5%)
Лучшая благодарность для автора раздачи - нажми


Последний раз редактировалось: Zёlik (11-01-2012 23:59), всего редактировалось 4 раз(а)
Вне форума Profile PM

optioner

Стаж: 10 лет

Сообщений: 298

Россия

Режим только чтение: НЕТ

post 26-Дек-2011 01:18 (спустя 3 дня)

Quote

Пожалуйста добавьте техданные видео в оформление.
Как это сделать, см здесь: http://torrent.rus.ec/viewtopic.php?t=12201
Вне форума Profile PM

Zёlik

Стаж: 8 лет 6 месяцев

Сообщений: 17

Украина

Режим только чтение: НЕТ

post 26-Дек-2011 01:28 (спустя 9 минут)

Quote

Спасибо ,исправлю обязательно

_________________
Вне форума Profile PM
Показать сообщения:    
Ответить на тему

Текущее время: 05-Июн 00:15

Часовой пояс: GMT + 3



Вы не можете начинать темы
Вы не можете отвечать на сообщения
Вы не можете редактировать свои сообщения
Вы не можете удалять свои сообщения
Вы не можете голосовать в опросах
Вы не можете прикреплять файлы к сообщениям
Вы не можете скачивать файлы
Рейтинг торрент трекеров - UpTracker.ru Анализ веб сайта Яндекс.Метрика
службы мониторинга серверов