Loading...
Error

(Rock/Pop) VA - Super Best Ballads - 1997, APE (image+.cue), lossless

Ответить на тему
 
Автор Сообщение

Игорёче-че-к

Стаж: 9 лет

Сообщений: 235

Откуда: Смоленская обл., г. Десногорск

СССР

Режим только чтение: НЕТ

post 26-Дек-2009 14:36

Quote

Various Artists - Super Best Ballads

Жанр: Rock/Pop
Год выпуска диска: 1997
Производитель диска: EU.
Аудио кодек: APE
Тип рипа: (image + .cue)
Битрейт аудио: lossless
Продолжительность: 01:09:09
01. Elton John - Believe
02. R.E.M. - Everybody Hurts
03. George Michael - Jesus To A Child
04. Madonna -You'll See
05. Kylie Minogue&Nick Cave - Where The Wild Roses Grow
06. Neneh Cherry - Woman
07. Neneh Cherry & Yossou N'Door - 7 Seconds
08. Deep Forest&Youssou N'Door&Neneh Cherry - Undecied
09. Rednex - Wish You Where Here
10. The Kelly Family - An Angel
11. Garbage - Milk
12. No Doubt - Don't Speak
13. Tanita Tikaram - Twist In My Sobriety
14. Suzan Vega - Caramel
15. D-Emotion Project - Priturlze Planinata
16. Adriano Celentano - Attraverco Me
Exact Audio Copy V0.99 prebeta 5 from 4. May 2009

Отчёт EAC об извлечении, выполненном 5. декабря 2009, 0:53

Various / Super Best Ballads

Дисковод: TSSTcorpCDDVDW SH-S223L Adapter: 2 ID: 1

Режим чтения : Достоверность
Использование точного потока : Да
Отключение кэша аудио : Да
Использование указателей C2 : Нет

Коррекция смещения при чтении : 6
Способность читать области Lead-in и Lead-out : Да
Заполнение пропущенных сэмплов тишиной : Да
Удаление блоков с тишиной в начале и конце : Нет
При вычислениях CRC использовались нулевые сэмплы : Да
Интерфейс : Встроенный Win32-интерфейс для Win NT/2000

Выходной формат : Внутренние WAV-операции
Формат сэмплов : 44.100 Гц; 16 бит; стерео

TOC извлечённого CD

Трек | Старт | Длительность | Начальный сектор | Конечный сектор
---------------------------------------------------------------------
1 | 0:00.00 | 4:42.65 | 0 | 21214
2 | 4:42.65 | 5:15.00 | 21215 | 44839
3 | 9:57.65 | 6:50.20 | 44840 | 75609
4 | 16:48.10 | 4:35.00 | 75610 | 96234
5 | 21:23.10 | 3:57.65 | 96235 | 114074
6 | 25:21.00 | 4:30.05 | 114075 | 134329
7 | 29:51.05 | 4:07.70 | 134330 | 152924
8 | 33:59.00 | 3:58.00 | 152925 | 170774
9 | 37:57.00 | 3:55.05 | 170775 | 188404
10 | 41:52.05 | 3:44.00 | 188405 | 205204
11 | 45:36.05 | 3:50.05 | 205205 | 222459
12 | 49:26.10 | 4:23.00 | 222460 | 242184
13 | 53:49.10 | 4:50.65 | 242185 | 263999
14 | 58:40.00 | 2:50.00 | 264000 | 276749
15 | 61:30.00 | 6:52.60 | 276750 | 307709
16 | 68:22.60 | 4:51.40 | 307710 | 329574

Характеристики диапазона извлечения и сообщения об ошибках

Выбранный диапазон

Имя файла D:\Игорёче-че-к\Релизы\Super Best Ballads\Various - Super Best Ballads.wav

Подозрительная позиция 0:05:05
Подозрительная позиция 0:05:18
Подозрительная позиция 0:05:35
Подозрительная позиция 0:05:39
Подозрительная позиция 0:05:44
Подозрительная позиция 0:05:59

Пиковый уровень 100.0 %
Качество диапазона 99.5 %
CRC копии CE7295C0
Копирование завершено

Были ошибки

AccurateRip: сводка

Трек 1 нет в базе данных
Трек 2 нет в базе данных
Трек 3 нет в базе данных
Трек 4 нет в базе данных
Трек 5 нет в базе данных
Трек 6 нет в базе данных
Трек 7 нет в базе данных
Трек 8 нет в базе данных
Трек 9 нет в базе данных
Трек 10 нет в базе данных
Трек 11 нет в базе данных
Трек 12 нет в базе данных
Трек 13 нет в базе данных
Трек 14 нет в базе данных
Трек 15 нет в базе данных
Трек 16 нет в базе данных

Ни одного трека нет в базе AccurateRip

Конец отчёта
Started at: суббота, 05. 12. 2009. - 3:25.59
16 files found

01 -===- D:\Игорёче-че-к\Разделение\Track_01.wav
Conclusion: this track is CDDA with probability 100%

02 -===- D:\Игорёче-че-к\Разделение\Track_02.wav
Conclusion: this track is CDDA with probability 100%

03 -===- D:\Игорёче-че-к\Разделение\Track_03.wav
Conclusion: this track is CDDA with probability 100%

04 -===- D:\Игорёче-че-к\Разделение\Track_04.wav
Conclusion: this track is CDDA with probability 100%

05 -===- D:\Игорёче-че-к\Разделение\Track_05.wav
Conclusion: this track is CDDA with probability 100%

06 -===- D:\Игорёче-че-к\Разделение\Track_06.wav
Conclusion: this track is CDDA with probability 100%

07 -===- D:\Игорёче-че-к\Разделение\Track_07.wav
Conclusion: this track is CDDA with probability 99%

08 -===- D:\Игорёче-че-к\Разделение\Track_08.wav
Conclusion: this track is CDDA with probability 73%

09 -===- D:\Игорёче-че-к\Разделение\Track_09.wav
Conclusion: this track is CDDA with probability 100%

10 -===- D:\Игорёче-че-к\Разделение\Track_10.wav
Conclusion: this track is CDDA with probability 100%

11 -===- D:\Игорёче-че-к\Разделение\Track_11.wav
Conclusion: this track is CDDA with probability 100%

12 -===- D:\Игорёче-че-к\Разделение\Track_12.wav
Conclusion: this track is CDDA with probability 100%

13 -===- D:\Игорёче-че-к\Разделение\Track_13.wav
Conclusion: this track is CDDA with probability 100%

14 -===- D:\Игорёче-че-к\Разделение\Track_14.wav
Conclusion: this track is CDDA with probability 100%

15 -===- D:\Игорёче-че-к\Разделение\Track_15.wav
Conclusion: this track is CDDA with probability 100%

16 -===- D:\Игорёче-че-к\Разделение\Track_16.wav
Conclusion: this track is CDDA with probability 100%

Finished at: суббота, 05. 12. 2009. - 3:36.55 (operation time: 0:10.55)
Доп. информация:
Данный сборник, судя по содержанию, действительно можно обозначить словом - Super. Но к сожалению, как и водится в превалирующем большинстве, у изумительных изданий - это пиратский выпуск! При копирование, выдаёт ошибку, но CD при этом идеально чист, без каких-либо артефактов, на что напрашивается только один вывод, пираты снимали копии (02. R.E.M. - Everybody Hurts), с поцарапанного диска! Утешает только подбор сборника и, что все песни, качества CDDA (08. Deep Forest&Youssou N'Door&Neneh Cherry - Undecied - вызывает лёгкое сомнение)
Снимки обложек дискетницы и лицевой стороны диска, в папке Covers

_________________


Последний раз редактировалось: Игорёче-че-к (07-02-2010 12:42), всего редактировалось 2 раз(а)
Вне форума Profile PM

Игорёче-че-к

Стаж: 9 лет

Сообщений: 235

Откуда: Смоленская обл., г. Десногорск

СССР

Режим только чтение: НЕТ

post 26-Дек-2009 14:44 (спустя 7 минут)

Quote

- Всех с наступающим, беспробудным от веселья, праздником!!!

_________________
Вне форума Profile PM
Показать сообщения:    
Ответить на тему

Текущее время: 13-Дек 05:30

Часовой пояс: GMT + 3



Вы не можете начинать темы
Вы не можете отвечать на сообщения
Вы не можете редактировать свои сообщения
Вы не можете удалять свои сообщения
Вы не можете голосовать в опросах
Вы не можете прикреплять файлы к сообщениям
Вы не можете скачивать файлы
Рейтинг торрент трекеров - UpTracker.ru Анализ веб сайта Яндекс.Метрика
службы мониторинга серверов