Loading...
Error

(Instrumental/Relax/Classical) VA - Музыка для души - Дискография (18 CD), APE (image+.cue), lossless

Ответить на тему
 
Автор Сообщение

Игорёче-че-к

Стаж: 9 лет 9 месяцев

Сообщений: 235

Откуда: Смоленская обл., г. Десногорск

СССР

Режим только чтение: НЕТ

post 22-Дек-2009 01:45

Quote

Various Artists - Музыка для души (CD 18)

Жанр: Instrumental/Relax/Classical
Год выпуска диска: 2007 - 2009
Производитель диска: Россия "Ридерз Дайджест"
Аудио кодек: APE
Тип рипа: (image + .cue)
Битрейт аудио: lossless
Трэклист:
01. Визит ангелов - Марк Хеббелинк арфа
02. Вход в Эдем - Ренато Анселми
03. Рай - Резенштейн/Вагенер
04. Мягкий бриз - Ренато Анселми
05. Исцеление природой - Дэн Тиен
06. На твоём берегу - Клэйр Хамильтон арфа
07. Остров снов - Ренато Анселии
08. У водопада - Кристиан Ланкто
09. Песня мая - Патрисия Сперо арфа
10. Тиха природа - Кристиан Ланкто
11. Декабрь - Резенштейн/Вагенер
12. Фонтан молодости - Ренато Анселии
13. Книга Бытия - Мэри Каманн арфа
14. Между сном и днём - Ренато Анселии
15. Невинность - "Orquesta Millenium"
16. Моря мудрости - Крис Хинз
01. Небесная лазурь - Ренато Анселии
02. Рождение природы - Кристиан Ланкто
03. Как если бы ангелы пели - Марк Хеббелинк/кельтская арфа
04. Мягкий бриз - Джон Францис
05. Возращение Аарона - Марко Рибалди
06. Канон - Мэри Каманн арфа
07. Прогулка в сосновом бору - Ренато Анселии
08. Так давно, так далеко - Марк Хеббелинк кельтская арфа
09. Отражение - Манфред Шуф
10. Лето - Резенштейн/Вагенер
11. Это было вчера - Джон Францис
12. Долина Земли- Марк Хеббелинк арфа
13. Брачная песнь дрозда - Ренато Анселии
14. Источник жизни - Джорджес Шмит флейта
15. Ветер и горы - Дютер
01. Гармоничный резонанс часть 1 - Джим Оливер
02. Внутренний танец часть 1 - Джеффри Томпсон
01. Deuter - Waves of Light
02. Corciolli - Maos de Luz
03. Andrew Stewart - Tranquillity
04. Corciolli - Avatar
05. Deuter - Flowing
06. Steven Halpern - Ascencion
07. Deuter - Reflection I
08. Corciolli - Cantareira
09. Deuter - Amida
10. Steven Halpern - Awakening
01. Wolff - Womb sounds with natural harmonies
01. Dr. Jeffrey Thompson - Fall Asleep
02. Dr. Jeffrey Thompson - Stay Asleep / Wake Up Rejuvenated
01. Раннее утро в лесу
02. Концерт рано утром
03. Утро в горах - Звон колоколов монастыря в долине
04. Маленький лесной ручей в мае
ВИРТУОЗЫ:
05. Дрозд-белобровик
06. Песня дрозда
07. Зяблик
08. Рыжепоясничная ласточка
09. Чёрный дрозд
10. Малая мухоловка
11. Тростниковая камышовка
12. Флейтовая птица
13. Сорокопут
14. Чёрная каменка
15. Лесной жаворонок
16. Музыкальная интерлюдия: Адажио
17. Камышовая овсянка
18. Каменка
19. Отдых
20. Дождь в лесу
21. Возвращение в горы - Снегирь/Колокольчики на овцах
22. В Провансе - Кузнечик/Дрозд
23. Дрозды на закате
24. Концерт летней ночью - Ноктюрн зелёных жаб и лесных лягушек
25. Ночь. Середина лета. Финляндия- Соловей
ЗАКАТ В ТРОПИЧЕСКОМ ЛЕСУ КОСТА-РИКИ
01. Закат в Ла Сельва
02. Закат в Карара Ресерва
03. Закат в национальном парке "Tortuguero"
04. Бразилия: Сайвадела на закате
05. Леса Майя: вид на Тикал - Утренний концерт насекомых/Момот/Оропендола
06. Концерт птиц в Папуа
07. Джунгли Сулавеси - Волосохохлый дронго/Сулавесская кустарница/Иволга/Малео/Козодой/Кукушка
08. Концерт в национальном парке "Palo Verde" (Коста-Рика)
09. Атлантика: Сан Педро после дождя
10. Из джунглей Борнео: Синичья славка
11. Африка - Моцарт. Концерт для кларнета
12. В Африке - Концерт природы в Зимбабве/Концерт природы в Ботсване/Лев/Семья желтых бабуинов/Серые бабуины/Бородастик/Белобровый соловей/Воркующий голубь/Гиена
13. Рассвет на реке Манапиаре
14. Рассвет в лесах Венесуэлы
15. Муравьеловка (Венесуэла)
В ДИКОЙ АФРИКЕ
16. Египетский гусь
17. Музыкальная интерлюдия: Анданте
18. Африканский орлан-крикун и длиннохвостый чибис
19. Серые лягушки в амазонских болотах
20. Концерт насекомых в Гарбоне, Суматре, острове Мартиника и Новой Гвинее
21. Сумерки в тропическом лесу Коста-Рики
22. Африканская ночь - Пятнистый даман в Серенгети/Африканская совка
01. Подводный мир
02. Дождь в лесу
03. Возле маленького ручейка - Речка/Серая трясогузка/Зимородок обыкновенный
04. Рассвет на озере - Утро на берегу озера
05. Ручей в лесу - Лапландская овсянка
НА БОЛОТЕ
06. Соловей
07. Водяные струи
08. Прудовая лягушка
09. Дискоязычная лягушка
10. Звуки побережья - Прогулка по берегу/Устье реки/Кулик-сорока/Утка-широконоска/Малая поганка [color=gray](птица)/Длинноносый крохаль/Гуменник
11. Музыка моря - Лёгкое волнение/Неспокойное море/Большая чайка/Большие волны, крики чаек/Гага
ВОЛШЕБНЫЕ ЗВУКИ КИТОВ
12. Чарующие песни китов
13. Горбатый кит
14. Кит нарвал и горбатый кит
01. National Philharmonic Orchestra, Charles Gerhardt (conductor) - The Enchanted Garden, from 'Mother Goose Suite' (Ravel)
02. National Philharmonic Orchestra, Douglas Gamley (conductor) - The Maiden and the Nightingale (Granados)
03. Academy of St. Martin-in-the-Fields, Sir Neville Marriner (conductor), Iona Brown (violin) - The Lark Ascending (Vaughan Williams)
04. Royal Philharmonic Orchestra, Peter Knight (conductor) - The Last Spring (Grieg)
05. London Promenade Orchestra, Douglas Gamley (conductor) - To a Waterlily (MacDowell)
06. London Promenade Orchestra, Eric Hammerstein (conductor) - Bailero, from 'Songs of the Auvergne' (Canteloube)
07. Sinfonia of London, Douglas Gamley (conductor) - The Ash Grove (Traditional)
08. London Promenade Orchestra, Eric Hammerstein (conductor) - Shepherd's Boy (Grieg)
09. Sinfonia of London, Charles Gerhardt (conductor) - All Through the Night (Traditional)
10. Larry Dalton (piano), Maurice Sklar (violin) - Six Studies in English Folk Song (lento) (Vaughan Williams)
11. Hubert Baron (cello), The Grand Orchestre Symphonique, Jacques Metehen (conductor) - Clair de Lune, from 'Werther' (Massenet)
12. Sinfonia of London, Charles Gerhardt (conductor) - The Birds Suite: The Dove (Respighi)
13. London Promenade Orchestra, Eric Hammerstein (conductor) - Beau Soir (Debussy)
14. Skaila Kanga (harp), National Philharmonic Orchestra, Charles Gerhardt (conductor) - Clair de Lune (Debussy)
15. Philharmonic Symphony of London, Charles Gerhardt (conductor) - To the Evening Star, from 'Tannhauser' (Wagner)
16. Sinfonia of London, Douglas Gamley (conductor) - At Dawning (Cadman / Eberhart)
17. National Philharmonic Orchestra, Charles Gerhardt (conductor) - Pavane for the Sleeping Beauty, from 'Mother Goose Suite' (Ravel)
01. Marc Hebbelinck (harp) - Silence in the Heart (Hebbelinck)
02. The Polish National Orchestra, Antoni Wit (conductor) - Three Pieces in Olden Style - First Piece (Gorecki)
03. London Promenade Orchestra, Morton Gould (conductor) - Adagio for Strings, from the film 'Platoon' (Barber)
04. Derek Wickens (oboe), National Philharmonic Orchestra, Charles Gerhardt (conductor) - Oboe Concerto in D Minor - Second Movement (Marcello)
05. Slovak Philharmonic Orchestra, Mario Kosik (conductor) - Aria, from 'Goldberg Variations' (Bach)
06. London Promenade Orchestra, Eric Hammerstein (conductor) - Pavane (Faure)
07. Larry Dalton (piano), Maurice Sklar (violin) - Spiegel im Spiegel (Part)
08. John Lenehan (piano) - No.3 from '6 Gnosiennes' (Satie)
09. Dana Protopopescu (piano), The BRT Philharmonic Orchestra, Alexander Rahbari (conductor) - Adagio from 'Concerto for Piano No.1' (Weber)
10. London Promenade Orchestra, Eric Hammerstein (conductor) - Gymnopedie No.3 (Satie / arr. Debussy)
11. Gardonyi Fides auf der Maur (clarinet), Michiko Tsuda (piano) - Adagio, molto expressivo from 'Suite on Hungarian Folksongs'
12. National Philharmonic Orchestra, Charles Gerhardt (conductor) - Air on the G String (Bach)
13. Philharmonic Symphony of London, Charles Gerhardt (conductor) - Largo from 'Xerxes' (Haendel)
14. London Promenade Orchestra, Eric Hammerstein (conductor) - Apres un Reve (Faure)
15. Arriaga String Quartet - Melodie en la Mineur (Piazzolla)
16. Zofia Kilanowicz (soprano), The Polish National Radio Symphony Orchestra, Antoni Wit (conductor) - Lento e Largo, from Symphony No.3 (Gorecki)
01. Walter Boeykens (clarinet), The Philharmonic, Theodore Bloomfield (conductor) - Andante from Concerto for Clarinet (from the film 'Out of Africa')
02. Michael Thompson (horn), National Philharmonic Orchestra, Charles Gerhardt (conductor) - Romanza & Larghetto from Concerto for Horn No.3
03. I Solisti Veneti, Claudio Scimone (conductor) - Andante from Symphony No.19
04. Rovert Dohn (flute), Margit Anna Suss (harp), Ludwigsburger Festspiele Orchestra, Wolfgang Gonnenwein (conductor) - Andantino from Concerto for Flute and Harp
05. I Solisti Veneti, Claudio Scimone (conductor) - Gallimathias Musicum
06. Stuttgart Chamber Orchestra, Lev Markiz (conductor) - Adagio from Divertimento No.17 in D, KV 334
07. Lola Bobesco (violin), Orchestre de Chambre de Wallonie - Adagio from Concerto for Violin No.5
08. London Promenade Orchestra, Charles Gerhardt (conductor) - Romance - Andante from 'Eine Kleine Nachtmusik'
09. Stuttgart Chamber Orchestra, Lev Markiz (conductor) - Andante Moderato from Symphony No.33
10. Daniel Blumenthal (piano) - Andante Grazioso from Sonata in A, KV 331
11. I Solisti Veneti, Claudio Scimone (conductor) - Symphony No.22
01. Оркестр "The Lavender Hill" - В утреннем свете
02. Уэнди Куинлан, флейта, с оркестром - Пусть так будет
03. Ренато Анселми, синтезатор - Птичьи голоса в утреннем небе
04. Оркестр "The Lavender Hill" - Колокольчики
05. Ральф Бенатр и его оркестр - Алегриа
06. Крис Хинз, флейта, с симф. оркестром, при участии Луиса ван Дийка - Одет с иголочки
07. Тис ван Лир и его оркестр - Лара
08. Герман ван Вин, скрипка, при участии Эдит Лиркес, гитара, и камерного орк. "Harlequin" - Эдит
09. Уэнди Куинлан, флейта, с оркестром "The Lavender Hill" - Фокус 1
10. Ханс Виссер - Анна
11. Дэйвид Сан - Спокойствие первое
12. Эннио Морриконе и его оркестр - Бедная Барбара
13. Оркестр "The Lavender Hill" - Мягкий фокус
14. Оркестр "The Lavender Hill" - Самонаблюдение
15. Оркестр Криса Хинза - Фрески
16. Розенштейн / Вагенер при участии Сабин Миттенгубер - Водный мир
17. Оркестр "The Lavender Hill" - Спокойной ночи, сын мой
18. Оркестр "The Lavender Hill" - Только время
01. Оркестр "The Lavender Hill" / Уэнди Куинлан, флейта - Пастор
02. Корциолли - Тишина
03. Филип Чэпмэн - Райский сад
04. Стивен Родес - Ангел исцеления
05. Крис Уолден и его оркестр - Стрекоза
06. Френсис Гойя, гитара, с оркестром - Восхитительный сад
07. Уэнди Куинлан, флейта, с оркестром - Адьемус
08. Корциолли - Дух
09. Дамиан Драгичи, флейта, с оркестром - В поисках потерянного рая
10. Терри Олдфилд - Отходная молитва (De Profundis)
11. Аша - Концерт ангелов / Песня Лайонела
12. Корциолли - Постепенно
13. Оркестр "The Taliesin" - Благодарение
14. Майкл Дэвис, скрипка, с оркестром - Ноктюрн
15. Оркестр "The Lavender Hill" - Саноми
16. Герман ван Вин, скрипка, при участии Эдит Лиркес, гитара, и камерного орк. "Harlequin" - Ради жизни
17. Оркестр "The Lavender Hill" - Человек с глазами ребёнка
18. Уэнди Куинлан, флейта, с оркестром - Ветер нас унесёт
19. Терри Олдфилд - Mya vin Rys
01. Марк Хеббелинк, арфа - Тайны внутреннего мира
02. Ксентакис и его оркестр - Неизвестному
03. Корциолли - Пранайама
04. Дютер - Благословение
05. Крис Хинз - Расширяя границы чувств
06. Тис Ван Лир и его оркестр / Мелаэртс, гитара - Белла
07. Крис Уолден и его оркестр - Возвращение
08. Дютер - Серебряное облако
09. Камал - Морские путешественники
10. Джинслэйн Слиндженейер, фортепиано, при участии оркестра "The Lavender Hill" - Укрытие
11. Вассилис Салеас - Волшебная ночь
12. Уэнди Куинлан, флейта, Френсис Гойя, гитара, с оркестром - На берегах вечности
13. Филармонический оркестр Словакии, дирижёр Милош Бетко - Белые ветры (Путешествие ищущего)
14. Георге Замфир - Barbu Lautaru
01. Barry-Black - Born free (vivre libre)
02. Lightfoot - Early morning rain
03. Mitchell - Valse franзaise
04. Carnes-Ellingson - Don't fall in love with a dreamer
05. Wallux-Weyer - Tender lullaby (tendre berceuse)
06. Merkanto - Romance
07. Jдmefelt - Berceuse
08. Wallux-Weyer - Valdemosa nights (Nuits а Valdemosa)
09. Batt - Bright eyes
10. Cosma - David's song
11. Williams-Chambers - Feel
12. Armstrong-Nowels - White flag
13. Prince - Purple rain
14. Presser-Adamis - Pearl in her hair
15. Richie - Three times a lady
16. Cohen - Bird on a wire
17. Vanwarmer - Just when I needed you most
18. Mitchell - Both sides now
01. Schmitt-Tardieu - Nympheas
02. Traditional-arr.Barder - Amazing Grace
03. Traditional - Isti Sunt Agni Novelli
04. Zamfir - The Doina of Hope
05. Gledden-Lacy-Wood - The Andes
06. Alongiri - In Search of Transparency
07. Traditional-arr.Barder - Light of Experience
08. Alongiri - Reaching for The Other Side
09. Schmitt-Tardieu - Procession
10. Traditional-arr.Zamfir-Cellier - Doina From Bocsa
11. Traditional-arr.Zamfir-Cellier - The Girl With The Clover
12. Wallux-Weyer - Peace of Mind
13. Fagini - Longing (For Let Up Time)
14. Traditional-arr.Zamfir-Cellier - Often Asc Me For My Heart
15. Traditional-arr.Zamfir-Cellier - Gheorghe Conducts The Cattle
16. Claudric-Yupanqui Atahualpa
17. Traditional - Barbu Lautaru
01. Wagner - Romance а l'йtoile de «Tanhдuser»
02. Tchaikovsky - Romance
03. Sibelius - Finlandia
04. Wallux-Weyer - For the one I love (Pour celui que j'aime)
05. Puccini - Sur la mer calmйe, de «Madame Butterfly»
06. Mozart - Venez sans plus tarder, des «Noces de Figaro»
07. Mozart - Sull' aria, des «Noces de Figaro»
08. Schubert - Ave Maria
09. Merkanto - Valse lente
10. Mozart - Je te tendrai la main, de «Don Giovanni»
11. Mozart - Ce portrait est d'une йblouissante beautй, de la «Flute enchantйe»
12. Verdi - Aurais-tu oubliй la mer et le sol de Provenceї, de «La traviata»
13. Ravel - Piиce en forme de habaсera
14. Verdi - Belle fille de l'amour, de «Rigoletto»
15. Lehбr - Vilia, de «La veuve joyeuse»
16. Mozart - Oщ sont ces jours de bonheurї, des «Noces de Figaro»
17. Verdi - Celeste Aпda, de «Aпda»
18. Leoncavallo - Mattinata
19. (traditionnel) - La derniиre rose de l'йtй
Доп. информация:
ЗАО "Издательский Дом Ридерз Дайджест"
117218, Москва , а/я 8, тел.:
(495)725 25 70, факс: (495)258 55 59 сайт: www.rd.ru e-mail: cs_ru@rd.com
Производство копий , прокат, распространение и использование в коммерческих целях без согласия "Ридерз Дайджест" запрещается
Изготовлено: ООО "Сонопресс" 150049, Россия, Ярославль, ул. Свободы, 97. Лицензия ВАФ № 77-239 до 22.02.2011
- Пять комплектов CD, были девственны, так как их упаковочную плеву - я сорвал непосредственно перед рипованием
Снимки обложек дискетницы и лицевой стороны диска, в папке Covers

_________________


Последний раз редактировалось: Игорёче-че-к (28-01-2010 20:18), всего редактировалось 17 раз(а)
Вне форума Profile PM

Игорёче-че-к

Стаж: 9 лет 9 месяцев

Сообщений: 235

Откуда: Смоленская обл., г. Десногорск

СССР

Режим только чтение: НЕТ

post 22-Дек-2009 01:55 (спустя 9 минут)

Quote

V0.99 prebeta 4 from 23. January 2008

Отчёт EAC об извлечении, выполненном 8. марта 2008, 15:24

Various / Исцеляющая сила музыки CD1

Дисковод: PIONEER DVD-RW DVR-109 Adapter: 0 ID: 0

: Достоверность
: Да
: Да
: Нет

Коррекция смещения при чтении: : 48
Способность читать области Lead-in и Lead-out : Да
Заполнение пропущенных сэмплов тишиной : Да
Удаление блоков с тишиной в начале и конце : Нет
: Нет
: Установленный внешний ASPI-интерфейс

Выходной формат: : Внутренние WAV-операции
: 44.100 Гц; 16 бит; стерео

| | | |
--------------------------------------------
1 | 0:00.00 | 5:22.32 | 0 | 24181
2 | 5:22.32 | 4:56.72 | 24182 | 46453
3 | 10:19.29 | 5:03.25 | 46454 | 69203
4 | 15:22.54 | 3:38.61 | 69204 | 85614
5 | 19:01.40 | 5:13.61 | 85615 | 109150
6 | 24:15.26 | 4:17.46 | 109151 | 128471
7 | 28:32.72 | 5:07.29 | 128472 | 151525
8 | 33:40.26 | 2:38.64 | 151526 | 163439
9 | 36:19.15 | 3:10.14 | 163440 | 177703
10 | 39:29.29 | 5:40.33 | 177704 | 203236
11 | 45:09.62 | 6:02.21 | 203237 | 230407
12 | 51:12.08 | 2:49.64 | 230408 | 243146
13 | 54:01.72 | 4:38.68 | 243147 | 264064
14 | 58:40.65 | 3:43.29 | 264065 | 280818
15 | 62:24.19 | 3:50.70 | 280819 | 298138
16 | 66:15.14 | 6:38.55 | 298139 | 328043

Характеристики диапазона извлечения и сообщения об ошибках

Выбранный диапазон

Имя файла S:\Исцеляющая сила музыки\Various - Исцеляющая сила музыки CD1.wav

Пиковый уровень 100.0 %
Качество диапазона 99.9 %
CRC копии EAE3EE88
Копирование... OK

Ошибок не произошло

Конец отчёта
Started at: четверг, 10. 12. 2009. - 1:00.18
1 file found

1 -===- D:\Игорёче-че-к\Релизы\Музыка для души\Исцеляющая сила музыки\Мягкие звуки для ароматерапии (CD 1)\Various - Исцеляющая сила музыки CD1.wav
Conclusion: this track is CDDA with probability 100%

Finished at: четверг, 10. 12. 2009. - 1:17.12 (operation time: 0:16.54)
V0.99 prebeta 4 from 23. January 2008

Отчёт EAC об извлечении, выполненном 8. марта 2008, 15:37

Various / Исцеляющая сила музыки CD2

Дисковод: PIONEER DVD-RW DVR-109 Adapter: 0 ID: 0

: Достоверность
: Да
: Да
: Нет

Коррекция смещения при чтении: : 48
Способность читать области Lead-in и Lead-out : Да
Заполнение пропущенных сэмплов тишиной : Да
Удаление блоков с тишиной в начале и конце : Нет
: Нет
: Установленный внешний ASPI-интерфейс

Выходной формат: : Внутренние WAV-операции
: 44.100 Гц; 16 бит; стерео

| | | |
--------------------------------------------
1 | 0:00.00 | 2:32.72 | 0 | 11471
2 | 2:32.72 | 5:05.05 | 11472 | 34351
3 | 7:38.02 | 2:01.53 | 34352 | 43479
4 | 9:39.55 | 3:36.44 | 43480 | 59723
5 | 13:16.24 | 7:20.26 | 59724 | 92749
6 | 20:36.50 | 5:28.50 | 92750 | 117399
7 | 26:05.25 | 4:34.43 | 117400 | 137992
8 | 30:39.68 | 2:34.52 | 137993 | 149594
9 | 33:14.45 | 3:44.59 | 149595 | 166453
10 | 36:59.29 | 6:09.20 | 166454 | 194148
11 | 43:08.49 | 4:06.03 | 194149 | 212601
12 | 47:14.52 | 3:16.54 | 212602 | 227355
13 | 50:31.31 | 2:57.27 | 227356 | 240657
14 | 53:28.58 | 5:44.52 | 240658 | 266509
15 | 59:13.35 | 14:27.30 | 266510 | 331564

Характеристики диапазона извлечения и сообщения об ошибках

Выбранный диапазон

Имя файла S:\Исцеляющая сила музыки\Various - Исцеляющая сила музыки CD2.wav

Пиковый уровень 99.9 %
Качество диапазона 100.0 %
CRC копии 967D4C9B
Копирование... OK

Ошибок не произошло

Конец отчёта
Started at: четверг, 10. 12. 2009. - 1:18.05
1 file found

1 -===- D:\Игорёче-че-к\Релизы\Музыка для души\Исцеляющая сила музыки\Ощущения довольства и благоденствия (CD 2)\Various - Исцеляющая сила музыки CD2.wav
Conclusion: this track is CDDA with probability 100%

Finished at: четверг, 10. 12. 2009. - 1:38.32 (operation time: 0:20.26)
V0.99 prebeta 4 from 23. January 2008

Отчёт EAC об извлечении, выполненном 9. марта 2008, 19:16

Various / Исцеляющая сила музыки CD3

Дисковод: PIONEER DVD-RW DVR-109 Adapter: 0 ID: 0

: Достоверность
: Да
: Да
: Нет

Коррекция смещения при чтении: : 48
Способность читать области Lead-in и Lead-out : Да
Заполнение пропущенных сэмплов тишиной : Да
Удаление блоков с тишиной в начале и конце : Нет
: Нет
: Установленный внешний ASPI-интерфейс

Выходной формат: : Внутренние WAV-операции
: 44.100 Гц; 16 бит; стерео

| | | |
--------------------------------------------
1 | 0:00.00 | 30:40.16 | 0 | 138015
2 | 30:40.16 | 30:50.16 | 138016 | 276781

Характеристики диапазона извлечения и сообщения об ошибках

Выбранный диапазон

Имя файла M:\__music\__мои_CD\Ридерз Дайджест\Исцеляющая сила музыки\Various - Исцеляющая сила музыки CD3.wav

Пиковый уровень 100.0 %
Качество диапазона 100.0 %
CRC копии E3D99770
Копирование... OK

Ошибок не произошло

Конец отчёта
Started at: четверг, 10. 12. 2009. - 0:47.50
1 file found

1 -===- D:\Игорёче-че-к\Релизы\Музыка для души\Исцеляющая сила музыки\Гармоничный резонанс, Внутренний танец (CD 3)\Various - Исцеляющая сила музыки CD3.wav
Conclusion: this track is CDDA with probability 100%

Finished at: четверг, 10. 12. 2009. - 0:58.03 (operation time: 0:10.13)
Exact Audio Copy V0.99 prebeta 5 from 4. May 2009

Отчёт EAC об извлечении, выполненном 7. декабря 2009, 3:42

Various / Тихая ночь - Безмятежность

Дисковод: TSSTcorpCDDVDW SH-S223L Adapter: 2 ID: 1

: Достоверность
: Да
: Да
: Нет

Коррекция смещения при чтении : 6
Способность читать области Lead-in и Lead-out : Нет
Заполнение пропущенных сэмплов тишиной : Да
Удаление блоков с тишиной в начале и конце : Нет
При вычислениях CRC использовались нулевые сэмплы : Да
Интерфейс : Встроенный Win32-интерфейс для Win NT/2000

Выходной формат : Внутренние WAV-операции
Формат сэмплов : 44.100 Гц; 16 бит; стерео

TOC извлечённого CD

Трек | Старт | Длительность | Начальный сектор | Конечный сектор
---------------------------------------------------------------------
1 | 0:00.00 | 10:47.37 | 0 | 48561
2 | 10:47.37 | 5:05.44 | 48562 | 71480
3 | 15:53.06 | 15:02.04 | 71481 | 139134
4 | 30:55.10 | 4:30.59 | 139135 | 159443
5 | 35:25.69 | 7:07.31 | 159444 | 191499
6 | 42:33.25 | 1:21.62 | 191500 | 197636
7 | 43:55.12 | 8:39.57 | 197637 | 236618
8 | 52:34.69 | 4:27.73 | 236619 | 256716
9 | 57:02.67 | 9:57.15 | 256717 | 301506
10 | 67:00.07 | 4:00.12 | 301507 | 319518

Характеристики диапазона извлечения и сообщения об ошибках

Выбранный диапазон

Имя файла D:\Игорёче-че-к\Релизы\Тихая ночь\Безмятежность (CD - 1)\Various - Тихая ночь - Безмятежность.wav

Пиковый уровень 99.8 %
Качество диапазона 100.0 %
CRC копии 18E352BD
Копирование... OK

Ошибок не произошло

Конец отчёта
Started at: среда, 09. 12. 2009. - 15:21.44
1 file found

1 -===- D:\Игорёче-че-к\Релизы\Музыка для души\Тихая ночь\Безмятежность (CD 1)\Various - Тихая ночь - Безмятежность.wav
Conclusion: this track is CDDA with probability 100%

Finished at: среда, 09. 12. 2009. - 15:48.21 (operation time: 0:26.36)
Exact Audio Copy V0.99 prebeta 5 from 4. May 2009

Отчёт EAC об извлечении, выполненном 7. декабря 2009, 4:17

Wolff/Wolff / Тихая ночь - Преображение

Дисковод: TSSTcorpCDDVDW SH-S223L Adapter: 2 ID: 1

: Достоверность
: Да
: Да
: Нет

Коррекция смещения при чтении : 6
Способность читать области Lead-in и Lead-out : Нет
Заполнение пропущенных сэмплов тишиной : Да
Удаление блоков с тишиной в начале и конце : Нет
При вычислениях CRC использовались нулевые сэмплы : Да
Интерфейс : Встроенный Win32-интерфейс для Win NT/2000

Выходной формат : Внутренние WAV-операции
Формат сэмплов : 44.100 Гц; 16 бит; стерео

TOC извлечённого CD

Трек | Старт | Длительность | Начальный сектор | Конечный сектор
---------------------------------------------------------------------
1 | 0:00.00 | 58:01.00 | 0 | 261074

Характеристики диапазона извлечения и сообщения об ошибках

Выбранный диапазон

Имя файла D:\Игорёче-че-к\Релизы\Тихая ночь\Преображение (CD - 2)\Wolff Wolff - Тихая ночь - Преображение.wav

Пиковый уровень 44.4 %
Качество диапазона 99.9 %
CRC копии 0158687E
Копирование... OK

Ошибок не произошло

Конец отчёта
Started at: среда, 09. 12. 2009. - 15:49.07
1 file found

1 -===- D:\Игорёче-че-к\Релизы\Музыка для души\Тихая ночь\Преображение (CD 2)\Wolff Wolff - Тихая ночь - Преображение.wav
Conclusion: this track is CDDA with probability 100%

Finished at: среда, 09. 12. 2009. - 16:12.37 (operation time: 0:23.30)
Exact Audio Copy V0.99 prebeta 5 from 4. May 2009

Отчёт EAC об извлечении, выполненном 7. декабря 2009, 4:02

Dr. Jeffrey Thompson / Тихая ночь - Сновидения

Дисковод: TSSTcorpCDDVDW SH-S223L Adapter: 2 ID: 1

: Достоверность
: Да
: Да
: Нет

Коррекция смещения при чтении : 6
Способность читать области Lead-in и Lead-out : Нет
Заполнение пропущенных сэмплов тишиной : Да
Удаление блоков с тишиной в начале и конце : Нет
При вычислениях CRC использовались нулевые сэмплы : Да
Интерфейс : Встроенный Win32-интерфейс для Win NT/2000

Выходной формат : Внутренние WAV-операции
Формат сэмплов : 44.100 Гц; 16 бит; стерео

TOC извлечённого CD

Трек | Старт | Длительность | Начальный сектор | Конечный сектор
---------------------------------------------------------------------
1 | 0:00.00 | 30:25.17 | 0 | 136891
2 | 30:25.17 | 30:36.01 | 136892 | 274592

Характеристики диапазона извлечения и сообщения об ошибках

Выбранный диапазон

Имя файла D:\Игорёче-че-к\Релизы\Тихая ночь\Сновидения (CD - 3)\Dr. Jeffrey Thompson - Тихая ночь - Сновидения.wav

Пиковый уровень 100.0 %
Качество диапазона 100.0 %
CRC копии A6B19B1B
Копирование... OK

Ошибок не произошло

Конец отчёта
Started at: среда, 09. 12. 2009. - 16:27.44
1 file found

1 -===- D:\Игорёче-че-к\Релизы\Музыка для души\Тихая ночь\Сновидения (CD 3)\Dr. Jeffrey Thompson - Тихая ночь - Сновидения.wav
Conclusion: this track is CDDA with probability 100%

Finished at: среда, 09. 12. 2009. - 16:45.41 (operation time: 0:17.57)
Exact Audio Copy V0.99 prebeta 5 from 4. May 2009

Отчёт EAC об извлечении, выполненном 9. декабря 2009, 18:01

Various / Симфония природы - Музыка природы

Дисковод: TSSTcorpCDDVDW SH-S223L Adapter: 2 ID: 1

: Достоверность
: Да
: Да
: Нет

Коррекция смещения при чтении : 6
Способность читать области Lead-in и Lead-out : Нет
Заполнение пропущенных сэмплов тишиной : Да
Удаление блоков с тишиной в начале и конце : Нет
При вычислениях CRC использовались нулевые сэмплы : Да
Интерфейс : Встроенный Win32-интерфейс для Win NT/2000

Выходной формат : Внутренние WAV-операции
Формат сэмплов : 44.100 Гц; 16 бит; стерео

TOC извлечённого CD

Трек | Старт | Длительность | Начальный сектор | Конечный сектор
---------------------------------------------------------------------
1 | 0:00.00 | 6:04.27 | 0 | 27326
2 | 6:04.27 | 3:25.60 | 27327 | 42761
3 | 9:30.12 | 6:21.72 | 42762 | 71408
4 | 15:52.09 | 3:14.25 | 71409 | 85983
5 | 19:06.34 | 0:42.01 | 85984 | 89134
6 | 19:48.35 | 0:54.35 | 89135 | 93219
7 | 20:42.70 | 1:11.06 | 93220 | 98550
8 | 21:54.01 | 1:34.16 | 98551 | 105616
9 | 23:28.17 | 2:23.44 | 105617 | 116385
10 | 25:51.61 | 1:15.65 | 116386 | 122075
11 | 27:07.51 | 1:06.08 | 122076 | 127033
12 | 28:13.59 | 0:50.60 | 127034 | 130843
13 | 29:04.44 | 1:02.06 | 130844 | 135499
14 | 30:06.50 | 0:59.04 | 135500 | 139928
15 | 31:05.54 | 0:38.05 | 139929 | 142783
16 | 31:43.59 | 1:30.17 | 142784 | 149550
17 | 33:14.01 | 0:57.64 | 149551 | 153889
18 | 34:11.65 | 1:10.22 | 153890 | 159161
19 | 35:22.12 | 2:46.29 | 159162 | 171640
20 | 38:08.41 | 5:38.28 | 171641 | 197018
21 | 43:46.69 | 3:57.48 | 197019 | 214841
22 | 47:44.42 | 1:23.35 | 214842 | 221101
23 | 49:08.02 | 5:15.10 | 221102 | 244736
24 | 54:23.12 | 1:04.19 | 244737 | 249555
25 | 55:27.31 | 9:19.46 | 249556 | 291526

Характеристики диапазона извлечения и сообщения об ошибках

Выбранный диапазон

Имя файла D:\Игорёче-че-к\Релизы\Музыка для души\Симфония природы\Музыка природы (CD 1)\Various - Симфония природы - Музыка природы.wav

Пиковый уровень 98.8 %
Качество диапазона 100.0 %
CRC копии AC562A44
Копирование... OK

Ошибок не произошло

Конец отчёта
Started at: среда, 09. 12. 2009. - 18:30.53
1 file found

1 -===- D:\Игорёче-че-к\Релизы\Музыка для души\Симфония природы\Музыка природы (CD 1)\Various - Симфония природы - Музыка природы.wav
Conclusion: this track is CDDA with probability 100%

Finished at: среда, 09. 12. 2009. - 18:44.54 (operation time: 0:14.00)
Exact Audio Copy V0.99 prebeta 5 from 4. May 2009

Отчёт EAC об извлечении, выполненном 9. декабря 2009, 17:49

Various / Симфония природы - Экзотические леса

Дисковод: TSSTcorpCDDVDW SH-S223L Adapter: 2 ID: 1

: Достоверность
: Да
: Да
: Нет

Коррекция смещения при чтении : 6
Способность читать области Lead-in и Lead-out : Нет
Заполнение пропущенных сэмплов тишиной : Да
Удаление блоков с тишиной в начале и конце : Нет
При вычислениях CRC использовались нулевые сэмплы : Да
Интерфейс : Встроенный Win32-интерфейс для Win NT/2000

Выходной формат : Внутренние WAV-операции
Формат сэмплов : 44.100 Гц; 16 бит; стерео

TOC извлечённого CD

Трек | Старт | Длительность | Начальный сектор | Конечный сектор
---------------------------------------------------------------------
1 | 0:00.00 | 3:40.33 | 0 | 16532
2 | 3:40.33 | 2:00.73 | 16533 | 25605
3 | 5:41.31 | 2:04.25 | 25606 | 34930
4 | 7:45.56 | 4:38.42 | 34931 | 55822
5 | 12:24.23 | 2:05.65 | 55823 | 65262
6 | 14:30.13 | 2:20.28 | 65263 | 75790
7 | 16:50.41 | 5:03.39 | 75791 | 98554
8 | 21:54.05 | 2:13.49 | 98555 | 108578
9 | 24:07.54 | 2:59.31 | 108579 | 122034
10 | 27:07.10 | 0:38.73 | 122035 | 124957
11 | 27:46.08 | 1:13.45 | 124958 | 130477
12 | 28:59.53 | 12:00.53 | 130478 | 184530
13 | 41:00.31 | 1:44.62 | 184531 | 192392
14 | 42:45.18 | 1:27.55 | 192393 | 198972
15 | 44:12.73 | 1:44.27 | 198973 | 206799
16 | 45:57.25 | 1:04.59 | 206800 | 211658
17 | 47:02.09 | 1:12.44 | 211659 | 217102
18 | 48:14.53 | 0:45.56 | 217103 | 220533
19 | 49:00.34 | 1:58.68 | 220534 | 229451
20 | 50:59.27 | 4:53.26 | 229452 | 251452
21 | 55:52.53 | 1:39.46 | 251453 | 258923
22 | 57:32.24 | 1:33.41 | 258924 | 265939

Характеристики диапазона извлечения и сообщения об ошибках

Выбранный диапазон

Имя файла D:\Игорёче-че-к\Релизы\Музыка для души\Симфония природы\Экзотические леса\Various - Симфония природы - Экзотические леса.wav

Пиковый уровень 97.7 %
Качество диапазона 100.0 %
CRC копии 7648BE2F
Копирование... OK

Ошибок не произошло

Конец отчёта
Started at: среда, 09. 12. 2009. - 18:57.00
1 file found

1 -===- D:\Игорёче-че-к\Релизы\Музыка для души\Симфония природы\Экзотические леса (CD 2)\Various - Симфония природы - Экзотические леса.wav
Conclusion: this track is CDDA with probability 100%

Finished at: среда, 09. 12. 2009. - 19:11.27 (operation time: 0:14.27)
[img=right]
Exact Audio Copy V0.99 prebeta 5 from 4. May 2009

Отчёт EAC об извлечении, выполненном 9. декабря 2009, 18:23

Various / Музыка для души - Вода и море

Дисковод: TSSTcorpCDDVDW SH-S223L Adapter: 2 ID: 1

: Достоверность
: Да
: Да
: Нет

Коррекция смещения при чтении : 6
Способность читать области Lead-in и Lead-out : Нет
Заполнение пропущенных сэмплов тишиной : Да
Удаление блоков с тишиной в начале и конце : Нет
При вычислениях CRC использовались нулевые сэмплы : Да
Интерфейс : Встроенный Win32-интерфейс для Win NT/2000

Выходной формат : Внутренние WAV-операции
Формат сэмплов : 44.100 Гц; 16 бит; стерео

TOC извлечённого CD

Трек | Старт | Длительность | Начальный сектор | Конечный сектор
---------------------------------------------------------------------
1 | 0:00.00 | 1:06.10 | 0 | 4959
2 | 1:06.10 | 1:20.54 | 4960 | 11013
3 | 2:26.64 | 6:51.30 | 11014 | 41868
4 | 9:18.19 | 6:05.30 | 41869 | 69273
5 | 15:23.49 | 5:52.71 | 69274 | 95744
6 | 21:16.45 | 4:49.31 | 95745 | 117450
7 | 26:06.01 | 0:31.01 | 117451 | 119776
8 | 26:37.02 | 1:19.38 | 119777 | 125739
9 | 27:56.40 | 1:17.48 | 125740 | 131562
10 | 29:14.13 | 8:59.06 | 131563 | 171993
11 | 38:13.19 | 9:20.47 | 171994 | 214040
12 | 47:33.66 | 3:56.58 | 214041 | 231798
13 | 51:30.49 | 2:13.46 | 231799 | 241819
14 | 53:44.20 | 1:38.43 | 241820 | 249212

Характеристики диапазона извлечения и сообщения об ошибках

Выбранный диапазон

Имя файла D:\Игорёче-че-к\Релизы\Музыка для души\Симфония природы\Вода и море (CD 3)\Various - Музыка для души - Вода и море.wav

Пиковый уровень 95.7 %
Качество диапазона 100.0 %
CRC копии 436A5F44
Копирование... OK

Ошибок не произошло

Конец отчёта
Started at: среда, 09. 12. 2009. - 19:12.23
1 file found

1 -===- D:\Игорёче-че-к\Релизы\Музыка для души\Симфония природы\Вода и море (CD 3)\Various - Музыка для души - Вода и море.wav
Conclusion: this track is CDDA with probability 100%

Finished at: среда, 09. 12. 2009. - 19:22.59 (operation time: 0:10.35)
Exact Audio Copy V0.99 prebeta 5 from 4. May 2009

Отчёт EAC об извлечении, выполненном 9. декабря 2009, 21:06

Klassisia tunnelmia / Ощущение классики - В гармонии с природой

Дисковод: TSSTcorpCDDVDW SH-S223L Adapter: 2 ID: 1

: Достоверность
: Да
: Да
: Нет

Коррекция смещения при чтении : 6
Способность читать области Lead-in и Lead-out : Нет
Заполнение пропущенных сэмплов тишиной : Да
Удаление блоков с тишиной в начале и конце : Нет
При вычислениях CRC использовались нулевые сэмплы : Да
Интерфейс : Встроенный Win32-интерфейс для Win NT/2000

Выходной формат : Внутренние WAV-операции
Формат сэмплов : 44.100 Гц; 16 бит; стерео

TOC извлечённого CD

Трек | Старт | Длительность | Начальный сектор | Конечный сектор
---------------------------------------------------------------------
1 | 0:00.00 | 3:58.70 | 0 | 17919
2 | 3:58.70 | 4:41.15 | 17920 | 39009
3 | 8:40.10 | 15:28.01 | 39010 | 108610
4 | 24:08.11 | 5:33.21 | 108611 | 133606
5 | 29:41.32 | 3:10.27 | 133607 | 147883
6 | 32:51.59 | 3:38.65 | 147884 | 164298
7 | 36:30.49 | 2:43.10 | 164299 | 176533
8 | 39:13.59 | 4:31.51 | 176534 | 196909
9 | 43:45.35 | 3:29.59 | 196910 | 212643
10 | 47:15.19 | 2:02.34 | 212644 | 221827
11 | 49:17.53 | 4:34.09 | 221828 | 242386
12 | 53:51.62 | 4:42.20 | 242387 | 263556
13 | 58:34.07 | 2:22.39 | 263557 | 274245
14 | 60:56.46 | 4:35.61 | 274246 | 294931
15 | 65:32.32 | 2:18.27 | 294932 | 305308
16 | 67:50.59 | 3:08.57 | 305309 | 319465
17 | 70:59.41 | 1:48.70 | 319466 | 327635

Характеристики диапазона извлечения и сообщения об ошибках

Выбранный диапазон

Имя файла D:\Игорёче-че-к\Релизы\Музыка для души\Ощущение классики\В гармонии с природой (CD 1)\Klassisia tunnelmia - Ощущение классики - В гармонии с природой.wav

Пиковый уровень 99.9 %
Качество диапазона 100.0 %
CRC копии ED53F6AE
Копирование... OK

Ошибок не произошло

Конец отчёта
Started at: среда, 09. 12. 2009. - 21:15.12
1 file found

1 -===- D:\Игорёче-че-к\Релизы\Музыка для души\Ощущение классики\В гармонии с природой (CD 1)\Klassisia tunnelmia - Ощущение классики - В гармонии с природой.wav
Conclusion: this track is CDDA with probability 100%

Finished at: среда, 09. 12. 2009. - 21:25.07 (operation time: 0:09.54)
Exact Audio Copy V0.99 prebeta 5 from 4. May 2009

Отчёт EAC об извлечении, выполненном 9. декабря 2009, 20:37

Klassisia tunnelmia / Музыка для души - Умиротворение

Дисковод: TSSTcorpCDDVDW SH-S223L Adapter: 2 ID: 1

: Достоверность
: Да
: Да
: Нет

Коррекция смещения при чтении : 6
Способность читать области Lead-in и Lead-out : Нет
Заполнение пропущенных сэмплов тишиной : Да
Удаление блоков с тишиной в начале и конце : Нет
При вычислениях CRC использовались нулевые сэмплы : Да
Интерфейс : Встроенный Win32-интерфейс для Win NT/2000

Выходной формат : Внутренние WAV-операции
Формат сэмплов : 44.100 Гц; 16 бит; стерео

TOC извлечённого CD

Трек | Старт | Длительность | Начальный сектор | Конечный сектор
---------------------------------------------------------------------
1 | 0:00.00 | 3:50.53 | 0 | 17302
2 | 3:50.53 | 3:19.37 | 17303 | 32264
3 | 7:10.15 | 7:28.32 | 32265 | 65896
4 | 14:38.47 | 4:47.07 | 65897 | 87428
5 | 19:25.54 | 5:18.10 | 87429 | 111288
6 | 24:43.64 | 4:04.73 | 111289 | 129661
7 | 28:48.62 | 7:48.60 | 129662 | 164821
8 | 36:37.47 | 2:38.49 | 164822 | 176720
9 | 39:16.21 | 4:25.14 | 176721 | 196609
10 | 43:41.35 | 3:18.74 | 196610 | 211533
11 | 47:00.34 | 2:35.18 | 211534 | 223176
12 | 49:35.52 | 4:03.05 | 223177 | 241406
13 | 53:38.57 | 2:11.14 | 241407 | 251245
14 | 55:49.71 | 3:02.29 | 251246 | 264924
15 | 58:52.25 | 4:21.67 | 264925 | 284566
16 | 63:14.17 | 10:12.21 | 284567 | 330487

Характеристики диапазона извлечения и сообщения об ошибках

Выбранный диапазон

Имя файла D:\Игорёче-че-к\Релизы\Музыка для души\Ощущение классики\Умиротворение (CD 2)\Klassisia tunnelmia - Музыка для души - Умиротворение.wav

Пиковый уровень 99.9 %
Качество диапазона 99.9 %
CRC копии 9F7E46A4
Копирование... OK

Ошибок не произошло

Конец отчёта
Started at: среда, 09. 12. 2009. - 21:29.24
1 file found

1 -===- D:\Игорёче-че-к\Релизы\Музыка для души\Ощущение классики\Умиротворение (CD 2)\Klassisia tunnelmia - Музыка для души - Умиротворение.wav
Conclusion: this track is CDDA with probability 100%

Finished at: среда, 09. 12. 2009. - 21:39.47 (operation time: 0:10.23)
Exact Audio Copy V0.99 prebeta 5 from 4. May 2009

Отчёт EAC об извлечении, выполненном 9. декабря 2009, 20:51

Klassisia tunnelmia / Ощущение классики - Эффект Моцарта

Дисковод: TSSTcorpCDDVDW SH-S223L Adapter: 2 ID: 1

: Достоверность
: Да
: Да
: Нет

Коррекция смещения при чтении : 6
Способность читать области Lead-in и Lead-out : Нет
Заполнение пропущенных сэмплов тишиной : Да
Удаление блоков с тишиной в начале и конце : Нет
При вычислениях CRC использовались нулевые сэмплы : Да
Интерфейс : Встроенный Win32-интерфейс для Win NT/2000

Выходной формат : Внутренние WAV-операции
Формат сэмплов : 44.100 Гц; 16 бит; стерео

TOC извлечённого CD

Трек | Старт | Длительность | Начальный сектор | Конечный сектор
---------------------------------------------------------------------
1 | 0:00.00 | 6:52.13 | 0 | 30912
2 | 6:52.13 | 5:15.65 | 30913 | 54602
3 | 12:08.03 | 4:12.68 | 54603 | 73570
4 | 16:20.71 | 7:54.63 | 73571 | 109183
5 | 24:15.59 | 3:55.23 | 109184 | 126831
6 | 28:11.07 | 7:10.60 | 126832 | 159141
7 | 35:21.67 | 11:06.56 | 159142 | 209147
8 | 46:28.48 | 4:33.66 | 209148 | 229688
9 | 51:02.39 | 5:28.19 | 229689 | 254307
10 | 56:30.58 | 7:42.09 | 254308 | 288966
11 | 64:12.67 | 6:19.37 | 288967 | 317428

Характеристики диапазона извлечения и сообщения об ошибках

Выбранный диапазон

Имя файла D:\Игорёче-че-к\Релизы\Музыка для души\Ощущение классики\Эффект Моцарта (CD 3)\Klassisia tunnelmia - Ощущение классики - Эффект Моцарта.wav

Пиковый уровень 91.1 %
Качество диапазона 100.0 %
CRC копии 8A70FCAB
Копирование... OK

Ошибок не произошло

Конец отчёта
Started at: среда, 09. 12. 2009. - 21:44.40
1 file found

1 -===- D:\Игорёче-че-к\Релизы\Музыка для души\Ощущение классики\Эффект Моцарта (CD 3)\Klassisia tunnelmia - Ощущение классики - Эффект Моцарта.wav
Conclusion: this track is CDDA with probability 100%

Finished at: среда, 09. 12. 2009. - 21:55.07 (operation time: 0:10.26)
Various / Страна спокойствия - Утренний свет

Дисковод: TSSTcorpCDDVDW SH-S223L Adapter: 2 ID: 1

: Достоверность
: Да
: Да
: Нет

Коррекция смещения при чтении : 6
Способность читать области Lead-in и Lead-out : Нет
Заполнение пропущенных сэмплов тишиной : Да
Удаление блоков с тишиной в начале и конце : Нет
При вычислениях CRC использовались нулевые сэмплы : Да
Интерфейс : Встроенный Win32-интерфейс для Win NT/2000

Выходной формат : Внутренние WAV-операции
Формат сэмплов : 44.100 Гц; 16 бит; стерео

TOC извлечённого CD

Трек | Старт | Длительность | Начальный сектор | Конечный сектор
---------------------------------------------------------------------
1 | 0:00.00 | 3:20.14 | 0 | 15013
2 | 3:20.14 | 3:08.52 | 15014 | 29165
3 | 6:28.66 | 3:19.68 | 29166 | 44158
4 | 9:48.59 | 4:33.12 | 44159 | 64645
5 | 14:21.71 | 3:27.37 | 64646 | 80207
6 | 17:49.33 | 5:17.42 | 80208 | 104024
7 | 23:07.00 | 5:10.61 | 104025 | 127335
8 | 28:17.61 | 4:26.58 | 127336 | 147343
9 | 32:44.44 | 4:18.72 | 147344 | 166765
10 | 37:03.41 | 4:38.60 | 166766 | 187675
11 | 41:42.26 | 5:00.51 | 187676 | 210226
12 | 46:43.02 | 2:59.28 | 210227 | 223679
13 | 49:42.30 | 3:53.61 | 223680 | 241215
14 | 53:36.16 | 5:38.74 | 241216 | 266639
15 | 59:15.15 | 4:02.31 | 266640 | 284820
16 | 63:17.46 | 4:34.24 | 284821 | 305394
17 | 67:51.70 | 3:19.61 | 305395 | 320380
18 | 71:11.56 | 3:30.34 | 320381 | 336164

Характеристики диапазона извлечения и сообщения об ошибках

Выбранный диапазон

Имя файла D:\Игорёче-че-к\Релизы\Страна спокойствия\Утренний свет (CD 1)\Various - Страна спокойствия - Утренний свет.wav

Подозрительная позиция 1:14:42

Пиковый уровень 99.8 %
Качество диапазона 99.9 %
CRC копии 47C6977F
Копирование... OK

Ошибок не произошло

Конец отчёта
Started at: среда, 09. 12. 2009. - 13:32.30
1 file found

1 -===- D:\Игорёче-че-к\Релизы\Музыка для души\Страна спокойствия\Утренний свет (CD 1)\Various - Страна спокойствия - Утренний свет.wav
Conclusion: this track is CDDA with probability 100%

Finished at: среда, 09. 12. 2009. - 13:56.11 (operation time: 0:23.40)
Exact Audio Copy V0.99 prebeta 5 from 4. May 2009

Отчёт EAC об извлечении, выполненном 8. декабря 2009, 10:11

Various / Страна спокойствия - Ноктюрн в райском саду

Дисковод: TSSTcorpCDDVDW SH-S223L Adapter: 2 ID: 1

: Достоверность
: Да
: Да
: Нет

Коррекция смещения при чтении : 6
Способность читать области Lead-in и Lead-out : Нет
Заполнение пропущенных сэмплов тишиной : Да
Удаление блоков с тишиной в начале и конце : Нет
При вычислениях CRC использовались нулевые сэмплы : Да
Интерфейс : Встроенный Win32-интерфейс для Win NT/2000

Выходной формат : Внутренние WAV-операции
Формат сэмплов : 44.100 Гц; 16 бит; стерео

TOC извлечённого CD

Трек | Старт | Длительность | Начальный сектор | Конечный сектор
---------------------------------------------------------------------
1 | 0:00.00 | 3:51.37 | 0 | 17361
2 | 3:51.37 | 4:05.32 | 17362 | 35768
3 | 7:56.69 | 4:19.16 | 35769 | 55209
4 | 12:16.10 | 3:51.02 | 55210 | 72536
5 | 16:07.12 | 1:04.62 | 72537 | 77398
6 | 17:11.74 | 4:03.54 | 77399 | 95677
7 | 21:15.53 | 3:42.50 | 95678 | 112377
8 | 24:58.28 | 4:44.40 | 112378 | 133717
9 | 29:42.68 | 4:19.62 | 133718 | 153204
10 | 34:02.55 | 4:08.67 | 153205 | 171871
11 | 38:11.47 | 6:54.02 | 171872 | 202923
12 | 45:05.49 | 4:18.62 | 202924 | 222335
13 | 49:24.36 | 4:16.26 | 222336 | 241561
14 | 53:40.62 | 3:07.13 | 241562 | 255599
15 | 56:48.00 | 3:23.69 | 255600 | 270893
16 | 60:11.69 | 4:00.51 | 270894 | 288944
17 | 64:12.45 | 2:50.65 | 288945 | 301759
18 | 67:03.35 | 4:53.36 | 301760 | 323770
19 | 71:56.71 | 4:09.36 | 323771 | 342481

Характеристики диапазона извлечения и сообщения об ошибках

Выбранный диапазон

Имя файла D:\Игорёче-че-к\Релизы\Страна спокойствия\Ноктюрн в райском саду (CD 2)\Various - Страна спокойствия - Ноктюрн в райском саду.wav

Подозрительная позиция 1:16:06

Пиковый уровень 99.8 %
Качество диапазона 99.9 %
CRC копии 11B5B9AB
Копирование... OK

Ошибок не произошло

Конец отчёта
Started at: среда, 09. 12. 2009. - 14:32.32
1 file found

1 -===- D:\Игорёче-че-к\Релизы\Музыка для души\Страна спокойствия\Ноктюрн в райском саду (CD 2)\Various - Страна спокойствия - Ноктюрн в райском саду.wav
Conclusion: this track is CDDA with probability 100%

Finished at: среда, 09. 12. 2009. - 14:56.08 (operation time: 0:23.36)
Exact Audio Copy V0.99 prebeta 5 from 4. May 2009

Отчёт EAC об извлечении, выполненном 8. декабря 2009, 9:59

Various / Страна спокойствия - Тайны внутреннего мира

Дисковод: TSSTcorpCDDVDW SH-S223L Adapter: 2 ID: 1

: Достоверность
: Да
: Да
Использование указателей C2 : Нет

Коррекция смещения при чтении : 6
Способность читать области Lead-in и Lead-out : Нет
Заполнение пропущенных сэмплов тишиной : Да
Удаление блоков с тишиной в начале и конце : Нет
При вычислениях CRC использовались нулевые сэмплы : Да
Интерфейс : Встроенный Win32-интерфейс для Win NT/2000

Выходной формат : Внутренние WAV-операции
Формат сэмплов : 44.100 Гц; 16 бит; стерео

TOC извлечённого CD

Трек | Старт | Длительность | Начальный сектор | Конечный сектор
---------------------------------------------------------------------
1 | 0:00.00 | 3:05.34 | 0 | 13908
2 | 3:05.34 | 6:38.68 | 13909 | 43826
3 | 9:44.27 | 5:00.73 | 43827 | 66399
4 | 14:45.25 | 6:24.04 | 66400 | 95203
5 | 21:09.29 | 9:30.02 | 95204 | 137955
6 | 30:39.31 | 5:07.37 | 137956 | 161017
7 | 35:46.68 | 0:59.74 | 161018 | 165516
8 | 36:46.67 | 5:30.26 | 165517 | 190292
9 | 42:17.18 | 8:16.41 | 190293 | 227533
10 | 50:33.59 | 3:26.44 | 227534 | 243027
11 | 54:00.28 | 4:07.40 | 243028 | 261592
12 | 58:07.68 | 5:26.13 | 261593 | 286055
13 | 63:34.06 | 3:41.47 | 286056 | 302677
14 | 67:15.53 | 6:49.24 | 302678 | 333376

Характеристики диапазона извлечения и сообщения об ошибках

Выбранный диапазон

Имя файла D:\Игорёче-че-к\Релизы\Страна спокойствия\Тайны внутреннего мира (CD 3)\Various - Страна спокойствия - Тайны внутреннего мира.wav

Подозрительная позиция 1:14:04

Пиковый уровень 100.0 %
Качество диапазона 99.9 %
CRC копии 14B9970E
Копирование... OK

Ошибок не произошло

Конец отчёта
Started at: среда, 09. 12. 2009. - 14:02.51
1 file found

1 -===- D:\Игорёче-че-к\Релизы\Музыка для души\Страна спокойствия\Тайны внутреннего мира (CD 3)\Various - Страна спокойствия - Тайны внутреннего мира.wav
Conclusion: this track is CDDA with probability 100%

Finished at: среда, 09. 12. 2009. - 14:23.39 (operation time: 0:20.48)
Exact Audio Copy V0.99 prebeta 5 from 4. May 2009

Отчёт EAC об извлечении, выполненном 1. января 2010, 12:02

Волшебная свирель / Мелодии в тишине (CD 1)

Дисковод: TSSTcorpCDDVDW SH-S223L Adapter: 2 ID: 0

: Достоверность
: Да
: Да
: Нет

Коррекция смещения при чтении : 6
Способность читать области Lead-in и Lead-out : Нет
Заполнение пропущенных сэмплов тишиной : Да
Удаление блоков с тишиной в начале и конце : Нет
При вычислениях CRC использовались нулевые сэмплы : Да
Интерфейс : Встроенный Win32-интерфейс для Win NT/2000

Выходной формат : Внутренние WAV-операции
Формат сэмплов : 44.100 Гц; 16 бит; стерео

TOC извлечённого CD

Трек | Старт | Длительность | Начальный сектор | Конечный сектор
---------------------------------------------------------------------
1 | 0:00.00 | 3:46.01 | 0 | 16950
2 | 3:46.01 | 3:11.67 | 16951 | 31342
3 | 6:57.68 | 3:34.48 | 31343 | 47440
4 | 10:32.41 | 3:44.14 | 47441 | 64254
5 | 14:16.55 | 3:46.19 | 64255 | 81223
6 | 18:02.74 | 2:32.52 | 81224 | 92675
7 | 20:35.51 | 2:38.20 | 92676 | 104545
8 | 23:13.71 | 3:54.10 | 104546 | 122105
9 | 27:08.06 | 2:55.10 | 122106 | 135240
10 | 30:03.16 | 3:45.50 | 135241 | 152165
11 | 33:48.66 | 4:24.37 | 152166 | 172002
12 | 38:13.28 | 4:01.09 | 172003 | 190086
13 | 42:14.37 | 3:00.12 | 190087 | 203598
14 | 45:14.49 | 6:12.69 | 203599 | 231567
15 | 51:27.43 | 3:46.38 | 231568 | 248555
16 | 55:14.06 | 3:58.07 | 248556 | 266412
17 | 59:12.13 | 4:14.53 | 266413 | 285515
18 | 63:26.66 | 3:27.70 | 285516 | 301110

Характеристики диапазона извлечения и сообщения об ошибках

Выбранный диапазон

Имя файла D:\Игорёче-че-к\Релизы\Волшебная свирель\Мелодии в тишине\Волшебная свирель - Мелодии в тишине (CD 1).wav

Пиковый уровень 99.8 %
Качество диапазона 100.0 %
CRC копии B2EEF79A
Копирование... OK

Ошибок не произошло

Конец отчёта
Started at: пятница, 01. 01. 2010. - 13:40.00
1 file found

1 -===- D:\Игорёче-че-к\Релизы\Волшебная свирель\Мелодии в тишине (CD 1)\Волшебная свирель - Мелодии в тишине (CD 1).wav
Conclusion: this track is CDDA with probability 100%

Finished at: пятница, 01. 01. 2010. - 13:54.20 (operation time: 0:14.19)
Exact Audio Copy V0.99 prebeta 5 from 4. May 2009

Отчёт EAC об извлечении, выполненном 1. января 2010, 12:50

Волшебная свирель / Мечты, мечты...

Дисковод: TSSTcorpCDDVDW SH-S223L Adapter: 2 ID: 0

: Достоверность
: Да
: Да
: Нет

Коррекция смещения при чтении : 6
Способность читать области Lead-in и Lead-out : Нет
Заполнение пропущенных сэмплов тишиной : Да
Удаление блоков с тишиной в начале и конце : Нет
При вычислениях CRC использовались нулевые сэмплы : Да
Интерфейс : Встроенный Win32-интерфейс для Win NT/2000

Выходной формат : Внутренние WAV-операции
Формат сэмплов : 44.100 Гц; 16 бит; стерео

TOC извлечённого CD

Трек | Старт | Длительность | Начальный сектор | Конечный сектор
---------------------------------------------------------------------
1 | 0:00.00 | 5:44.39 | 0 | 25838
2 | 5:44.39 | 2:54.60 | 25839 | 38948
3 | 8:39.24 | 1:42.74 | 38949 | 46672
4 | 10:22.23 | 3:04.01 | 46673 | 60473
5 | 13:26.24 | 4:55.32 | 60474 | 82630
6 | 18:21.56 | 5:21.14 | 82631 | 106719
7 | 23:42.70 | 3:28.27 | 106720 | 122346
8 | 27:11.22 | 5:45.26 | 122347 | 148247
9 | 32:56.48 | 3:47.27 | 148248 | 165299
10 | 36:44.00 | 2:43.50 | 165300 | 177574
11 | 39:27.50 | 3:09.38 | 177575 | 191787
12 | 42:37.13 | 3:22.46 | 191788 | 206983
13 | 45:59.59 | 2:54.58 | 206984 | 220091
14 | 48:54.42 | 3:46.33 | 220092 | 237074
15 | 52:41.00 | 3:53.34 | 237075 | 254583
16 | 56:34.34 | 2:57.65 | 254584 | 267923
17 | 59:32.24 | 6:48.49 | 267924 | 298572

Характеристики диапазона извлечения и сообщения об ошибках

Выбранный диапазон

Имя файла D:\Игорёче-че-к\Релизы\Волшебная свирель\Мечты, мечты... (CD 2)\Волшебная свирель - Мечты, мечты....wav

Пиковый уровень 100.0 %
Качество диапазона 100.0 %
CRC копии 5D5DE92E
Копирование... OK

Ошибок не произошло

Конец отчёта
Started at: пятница, 01. 01. 2010. - 14:32.26
1 file found

1 -===- D:\Игорёче-че-к\Релизы\Волшебная свирель\Мечты, мечты... (CD 2)\Волшебная свирель - Мечты, мечты....wav
Conclusion: this track is CDDA with probability 87%

Finished at: пятница, 01. 01. 2010. - 14:46.43 (operation time: 0:14.17)
Exact Audio Copy V0.99 prebeta 5 from 4. May 2009

Отчёт EAC об извлечении, выполненном 1. января 2010, 13:10

Волшебная свирель / Звуки небес (CD 3)

Дисковод: TSSTcorpCDDVDW SH-S223L Adapter: 2 ID: 0

: Достоверность
: Да
: Да
: Нет

Коррекция смещения при чтении : 6
Способность читать области Lead-in и Lead-out : Нет
Заполнение пропущенных сэмплов тишиной : Да
Удаление блоков с тишиной в начале и конце : Нет
При вычислениях CRC использовались нулевые сэмплы : Да
Интерфейс : Встроенный Win32-интерфейс для Win NT/2000

Выходной формат : Внутренние WAV-операции
Формат сэмплов : 44.100 Гц; 16 бит; стерео

TOC извлечённого CD

Трек | Старт | Длительность | Начальный сектор | Конечный сектор
---------------------------------------------------------------------
1 | 0:00.00 | 2:56.11 | 0 | 13210
2 | 2:56.11 | 3:05.50 | 13211 | 27135
3 | 6:01.61 | 3:47.34 | 27136 | 44194
4 | 9:49.20 | 3:17.56 | 44195 | 59025
5 | 13:07.01 | 3:33.03 | 59026 | 75003
6 | 16:40.04 | 2:31.34 | 75004 | 86362
7 | 19:11.38 | 2:56.62 | 86363 | 99624
8 | 22:08.25 | 3:39.30 | 99625 | 116079
9 | 25:47.55 | 3:41.40 | 116080 | 132694
10 | 29:29.20 | 3:38.52 | 132695 | 149096
11 | 33:07.72 | 4:18.19 | 149097 | 168465
12 | 37:26.16 | 5:36.73 | 168466 | 193738
13 | 43:03.14 | 3:04.12 | 193739 | 207550
14 | 46:07.26 | 4:09.58 | 207551 | 226283
15 | 50:17.09 | 2:41.36 | 226284 | 238394
16 | 52:58.45 | 2:45.15 | 238395 | 250784
17 | 55:43.60 | 2:12.27 | 250785 | 260711
18 | 57:56.12 | 3:19.19 | 260712 | 275655
19 | 61:15.31 | 4:36.69 | 275656 | 296424

Характеристики диапазона извлечения и сообщения об ошибках

Выбранный диапазон

Имя файла D:\Игорёче-че-к\Релизы\Волшебная свирель\Звуки небес (CD 3)\Волшебная свирель - Звуки небес (CD 3).wav

Пиковый уровень 99.8 %
Качество диапазона 100.0 %
CRC копии CE10F51C
Копирование... OK

Ошибок не произошло

Конец отчёта
Started at: пятница, 01. 01. 2010. - 15:35.08
1 file found

1 -===- D:\Игорёче-че-к\Разделение\Волшебная свирель - Звуки небес (CD 3).wav
Conclusion: this track is CDDA with probability 92%

Finished at: пятница, 01. 01. 2010. - 15:50.34 (operation time: 0:15.25)

_________________


Последний раз редактировалось: Игорёче-че-к (03-01-2010 19:20), всего редактировалось 4 раз(а)
Вне форума Profile PM

malinka504

Стаж: 7 лет 8 месяцев

Сообщений: 5

Россия

Режим только чтение: НЕТ

post 23-Янв-2012 22:45 (спустя 2 года 1 месяц)

Quote

дайте пожалуйста скорости!!!!!!!!!!!!!!!
Вне форума Profile PM

malinka504

Стаж: 7 лет 8 месяцев

Сообщений: 5

Россия

Режим только чтение: НЕТ

post 23-Янв-2012 22:46 (спустя 1 минута)

Quote

Игорёче-че-к
дайте пожалуйста скорости!!!!!!!!!!!!!!!
Вне форума Profile PM

malinka504

Стаж: 7 лет 8 месяцев

Сообщений: 5

Россия

Режим только чтение: НЕТ

post 25-Янв-2012 22:24 (спустя 1 день 23 часа)

Quote

встаньте пожалуйста на раздачу 5 дней только 10% ну что это.
Вне форума Profile PM

malinka504

Стаж: 7 лет 8 месяцев

Сообщений: 5

Россия

Режим только чтение: НЕТ

post 25-Янв-2012 22:27 (спустя 2 минуты)

Quote

Игорёче-че-к
пожалуйста дораздай эту весч!!!!!!!!!Спасибо!!!!!!!
Вне форума Profile PM

Ezia Flora

Стаж: 7 лет 8 месяцев

Сообщений: 5

Откуда: Kuzbass (территория добра)

Россия

Режим только чтение: НЕТ

post 07-Фев-2012 12:25 (спустя 12 дней)

Quote

Игорёче-че-к, Help

очень музыку хочется!!!

Встаньте на раздачу кто-нибудь!!!

_________________
«Свобода означает для нас право делать всё, что запрещено законом» (Адриан Декурсель)
Вне форума Profile PM
Показать сообщения:    
Ответить на тему

Текущее время: 16-Окт 06:44

Часовой пояс: GMT + 3



Вы не можете начинать темы
Вы не можете отвечать на сообщения
Вы не можете редактировать свои сообщения
Вы не можете удалять свои сообщения
Вы не можете голосовать в опросах
Вы не можете прикреплять файлы к сообщениям
Вы не можете скачивать файлы
Рейтинг торрент трекеров - UpTracker.ru Анализ веб сайта Яндекс.Метрика
службы мониторинга серверов