Loading...
Error

Очень опасная штучка / One for the Money (2012) (Джули Энн Робинсон) [2012, Комедия, BDRip]

Ответить на тему
 
Автор Сообщение

kitja6

Стаж: 9 лет

Сообщений: 37

Откуда: Нижневартовск

СССР

Режим только чтение: НЕТ

post 06-Мар-2012 14:13

Quote

Очень опасная штучка / One for the Money (2012)(Джули Энн Робинсон) [Комедия, BDRip]

Год выпуска: 2012
Страна: США
Жанр: Комедия
Продолжительность: 01:31:18
Перевод: Дублированный
Режиссер: Джули Энн Робинсон
Продюсер: Венди Файнерман, Сидни Киммел, Гари Лучези
Премьера в мире: 26 января 2012

В ролях: Кэтрин Хайгл, Джейсон О’Мара, Дэниел Сунджата, Джон Легуизамо, Шерри Шеперд, Дебби Рейнолдс, Дебра Монк, Нат Муни, Адам Пол, Фишер Стивенс, Ана Ридер, Патрик Фишлер, Райан Мишель Бате, Леонардо Нам, Энни Париссе, Дэниэл Мастроджорджо, Луис Мустилльо, Гарри О’Тул ...

Описание: Продавщица нижнего белья в отставке Стэфани Плам нашла новую работу. Отныне она охотится на мужчин, за поимку которых назначена солидная награда. Ее главное оружие — женская интуиция и модные туфли на высоких каблуках. Но даже они бессильны перед главной целью — мужчиной ее мечты. Он красив, остроумен и смертельно опасен, и при этом он её бывший.

Роли дублировали: Ирина Киреева, Сергей Бурунов, Пётр Иващенко, Андрей Бархударов, Мария Овчинникова, Светлана Старикова, Екатерина Семенова, Юрий Деркач, Диомид Виноградов, Ольга Голованова, Алексей Борзунов, Ольга Кузнецова

Качество: BDRip
Формат: AVI
Видео кодек: XviD
Аудио кодек: AC3

Релиз от: CP-Digital
Код:

Полное имя : D:\Фильмы\Очень опасная штучка One for the Money (2012HDRip)\Ocen.opasnaya.shtu4ka.2012.D.HDRip.
Формат : AVI
Формат/Информация : Audio Video Interleave
Размер файла : 1,37 Гбайт
Продолжительность : 1 ч. 31 м.
Общий поток : 2143 Кбит/сек
Программа кодирования : VirtualDubMod 1.5.10.2 (build 2540/release)
Библиотека кодирования : VirtualDubMod build 2540/release

Видео
Идентификатор : 0
Формат : MPEG-4 Visual
Профиль формата : Advanced Simple@L5
Параметр BVOP формата : Нет
Параметр QPel формата : Нет
Параметр GMC формата : Без точки перехода
Параметр матрицы формата : Выборочная
Идентификатор кодека : XVID
Идентификатор кодека/Подсказка : XviD
Продолжительность : 1 ч. 31 м.
Битрейт : 1750 Кбит/сек
Ширина : 720 пикселей
Высота : 304 пикселя
Соотношение сторон : 2,35:1
Частота кадров : 23,976 кадра/сек
Цветовое пространство : YUV
Субдискретизация насыщенности : 4:2:0
Битовая глубина : 8 бит
Тип развёртки : Прогрессивная
Метод сжатия : С потерями
Бит/(Пиксели*Кадры) : 0.333
Размер потока : 1,12 Гбайт (82%)
Библиотека кодирования : XviD 1.2.1 (UTC 2008-12-04)

Аудио
Идентификатор : 1
Формат : AC-3
Формат/Информация : Audio Coding 3
Расширение режима : CM (complete main)
Идентификатор кодека : 2000
Продолжительность : 1 ч. 31 м.
Вид битрейта : Постоянный
Битрейт : 384 Кбит/сек
Каналы : 6 каналов
Расположение каналов : Front: L C R, Side: L R, LFE
Частота : 48,0 КГц
Битовая глубина : 16 бит
Метод сжатия : С потерями
Размер потока : 251 Мбайт (18%)
Выравнивание : Разделение по промежуткам
Продолжительность промежутка : 42 мс. (1,00 видеокадр)
Время предзагрузки промежутка : 500 мс.
Вне форума Profile PM
Показать сообщения:    
Ответить на тему

Текущее время: 16-Дек 05:20

Часовой пояс: GMT + 3



Вы не можете начинать темы
Вы не можете отвечать на сообщения
Вы не можете редактировать свои сообщения
Вы не можете удалять свои сообщения
Вы не можете голосовать в опросах
Вы не можете прикреплять файлы к сообщениям
Вы не можете скачивать файлы
Рейтинг торрент трекеров - UpTracker.ru Анализ веб сайта Яндекс.Метрика
службы мониторинга серверов