Loading...
Error

(Thrash Metal) Metallica - Best Ballads - 1998, APE (image + .cue), lossless

Ответить на тему
 
Автор Сообщение

Игорёче-че-к

Стаж: 9 лет 8 месяцев

Сообщений: 235

Откуда: Смоленская обл., г. Десногорск

СССР

Режим только чтение: НЕТ

post 11-Янв-2010 03:35

Quote

Metallica - Best Ballads

Страна: Germany PSOG-270579 KJF-31-867
Жанр: Thrash Metal
Год выпуска: 1998
Формат: APE (image + .cue)
Битрейт аудио: lossless
Продолжительность: 01:07:04
01. The Unforgiven (6:27)
02. One (7:26)
03. Mama Said (5:20)
04. Fade To Black (6:55)
05. Welcome Home (Sanitarium) (6:26)
06. Bleeding Me (8:19)
07. Nothing Else Matters (6:29)
08. To Live Is To Die (9:49)
09. The Outlaw Torn (9:53)
Exact Audio Copy V0.99 prebeta 5 from 4. May 2009

Отчёт EAC об извлечении, выполненном 17. января 2010, 6:28

Metallica / Best Ballads

Дисковод: TSSTcorpCDDVDW SH-S223L Adapter: 3 ID: 0

Режим чтения : Достоверность
Использование точного потока : Да
Отключение кэша аудио : Да
Использование указателей C2 : Нет

Коррекция смещения при чтении : 6
Способность читать области Lead-in и Lead-out : Нет
Заполнение пропущенных сэмплов тишиной : Да
Удаление блоков с тишиной в начале и конце : Нет
При вычислениях CRC использовались нулевые сэмплы : Да
Интерфейс : Встроенный Win32-интерфейс для Win NT/2000

Выходной формат : Внутренние WAV-операции
Формат сэмплов : 44.100 Гц; 16 бит; стерео

TOC извлечённого CD

Трек | Старт | Длительность | Начальный сектор | Конечный сектор
---------------------------------------------------------------------
1 | 0:00.00 | 6:27.37 | 0 | 29061
2 | 6:27.37 | 7:24.50 | 29062 | 62411
3 | 13:52.12 | 5:20.55 | 62412 | 86466
4 | 19:12.67 | 6:53.73 | 86467 | 117514
5 | 26:06.65 | 6:27.00 | 117515 | 146539
6 | 32:33.65 | 8:18.40 | 146540 | 183929
7 | 40:52.30 | 6:28.62 | 183930 | 213091
8 | 47:21.17 | 9:50.13 | 213092 | 257354
9 | 57:11.30 | 9:50.45 | 257355 | 301649

Характеристики диапазона извлечения и сообщения об ошибках

Выбранный диапазон

Имя файла D:\Игорёче-че-к\Документы\Torrent\Пробные\Metallica_-_Best_Ballads_[torrent.rus]\Metallica - Best Ballads\Metallica - Best Ballads.wav

Пиковый уровень 93.3 %
Качество диапазона 100.0 %
CRC копии 928C0BD6
Копирование... OK

Ошибок не произошло

AccurateRip: сводка
Трек 1 точное извлечение (доверие 2) [961FCEFA]
Трек 2 нет в базе данных
Трек 3 нет в базе данных
Трек 4 нет в базе данных
Трек 5 нет в базе данных
Трек 6 нет в базе данных
Трек 7 точное извлечение (доверие 2) [161E5284]
Трек 8 нет в базе данных
Трек 9 нет в базе данных

2 трек(и) скопированы точно
7 трек(и) не содержатся в базе AccurateRip

Некоторые треки не прошли проверку на точность

Конец отчёта
Started at: понедельник, 11. 01. 2010. - 3:41.05
1 file found

1 -===- D:\Игорёче-че-к\Релизы\Metallica_-_Best_Ballads_[torrent.rus]\Metallica - Best Ballads\Metallica - Best Ballads.wav
Conclusion: this track is CDDA with probability 100%

Finished at: понедельник, 11. 01. 2010. - 3:58.35 (operation time: 0:17.30)
Доп. информация: Снимки обложек дискетницы и лицевой стороны диска, в папке Covers

_________________


Последний раз редактировалось: Игорёче-че-к (17-01-2010 06:55), всего редактировалось 6 раз(а)
Вне форума Profile PM

Игорёче-че-к

Стаж: 9 лет 8 месяцев

Сообщений: 235

Откуда: Смоленская обл., г. Десногорск

СССР

Режим только чтение: НЕТ

post 11-Янв-2010 04:12 (спустя 37 минут)

Quote

- Всем приятного прослушивания!!!

_________________
Вне форума Profile PM
Показать сообщения:    
Ответить на тему

Текущее время: 21-Авг 16:53

Часовой пояс: GMT + 3



Вы не можете начинать темы
Вы не можете отвечать на сообщения
Вы не можете редактировать свои сообщения
Вы не можете удалять свои сообщения
Вы не можете голосовать в опросах
Вы не можете прикреплять файлы к сообщениям
Вы не можете скачивать файлы
Рейтинг торрент трекеров - UpTracker.ru Анализ веб сайта Яндекс.Метрика
службы мониторинга серверов