Loading...
Error

От винта 3D (Ольга Лопато) [2012 г., мультфильм, комедия, приключения, BDRip 1080p] |Half SideBySide - Вертикальная анаморфная стереопара|

Ответить на тему
 
Автор Сообщение

Theseus

Стаж: 10 лет

Сообщений: 5011

Режим только чтение: НЕТ

post 14-Сен-2012 16:00

Quote


От винта 3D

Год выпуска: 2012
Страна: Россия
Жанр: мультфильм, комедия, приключения
Продолжительность: 01:26:58
Перевод: Не требуется
Режиссер: Ольга Лопато
В ролях: Антонина Березка, Алексей Франдетти, Валентин Гафт, Андрей Мерзликин, Анфиса Чехова, Александр Головин, Александр Ильин, Александр Семчев, Александр Леньков, Виктор Власов
Описание: За несколько недель до грандиозного авиашоу юный истребитель СУ-27 по имени Витязь поступает в ученики к самолетам-корифеям, которые берутся подготовить его к соревнованию. Но Витязь забывает о занятиях, когда по уши влюбляется в очаровательный легкий самолет Молнию, не подозревая, что она — помощница жестокого и злого истребителя Грома, который мечтает расправиться с Витязем. Сможет ли Витязь завоевать любовь Молнии? Успеет ли разрушить коварные планы Грома? И главное — станет ли Витязь победителем авиашоу?

Качество: BDRip 1080p/3D
Формат: MKV
Видео кодек: H.264
Аудио кодек: DTS/AC3
Видео: MPEG-4 AVC, 9742 Кбит/с, 1920x1080, 23.976 кадр/с
Аудио 1: 48 kHz, DTS, 3/2 (L,C,R,l,r) + LFE ch, 1510 kbps
Аудио 2: 48 kHz, AC3 Dolby Digital, 2.0, 192 kbps
Субтитры: Нет
Формат 3D: Half SideBySide - Вертикальная анаморфная стереопара

Общее
Уникальный идентификатор : 186628076256101488089571809758383334632 (0x8C674292CCFB30509694DDF32F4E64E8)
Полное имя : N:\Ot.vinta-3D.2012.x264.BDRip(1080p).mkv
Формат : Matroska
Версия формата : Version 2
Размер файла : 7,09 Гбайт
Продолжительность : 1 ч. 26 м.
Режим общего битрейта : Переменный
Общий поток : 11,7 Мбит/сек
Название фильма : --SCHUMAHER--
Дата кодирования : UTC 2012-09-12 09:17:59
Программа кодирования : mkvmerge v5.8.0 ('No Sleep / Pillow') built on Sep 2 2012 15:37:04
Библиотека кодирования : libebml v1.2.3 + libmatroska v1.3.0

Видео
Идентификатор : 1
Формат : AVC
Формат/Информация : Advanced Video Codec
Профиль формата : High@L4.1
Параметр CABAC формата : Да
Параметр ReFrames формата : 2 кадра
Идентификатор кодека : V_MPEG4/ISO/AVC
Продолжительность : 1 ч. 26 м.
Вид битрейта : Переменный
Битрейт : 9742 Кбит/сек
Максимальный битрейт : 15,0 Мбит/сек
Ширина : 1920 пикселей
Высота : 1080 пикселей
Соотношение сторон : 16:9
Частота кадров : 23,976 кадра/сек
Цветовое пространство : YUV
Субдискретизация насыщенности : 4:2:0
Битовая глубина : 8 бит
Тип развёртки : Прогрессивная
Бит/(Пиксели*Кадры) : 0.196
Размер потока : 5,92 Гбайт (83%)
Язык : Russian
Default : Да
Forced : Да

Аудио #1
Идентификатор : 2
Формат : DTS
Формат/Информация : Digital Theater Systems
Идентификатор кодека : A_DTS
Продолжительность : 1 ч. 26 м.
Вид битрейта : Постоянный
Битрейт : 1510 Кбит/сек
Каналы : 6 каналов
Расположение каналов : Front: L C R, Side: L R, LFE
Частота : 48,0 КГц
Битовая глубина : 24 бит
Метод сжатия : С потерями
Размер потока : 939 Мбайт (13%)
Язык : Russian
Default : Да
Forced : Да

Аудио #2
Идентификатор : 3
Формат : AC-3
Формат/Информация : Audio Coding 3
Расширение режима : CM (complete main)
Параметр Endianness формата : Big
Идентификатор кодека : A_AC3
Продолжительность : 1 ч. 26 м.
Вид битрейта : Постоянный
Битрейт : 192 Кбит/сек
Каналы : 2 канала
Расположение каналов : Front: L R
Частота : 48,0 КГц
Битовая глубина : 16 бит
Метод сжатия : С потерями
Размер потока : 119 Мбайт (2%)
Язык : Russian
Default : Нет
Forced : Нет

Меню
00:00:00.000 : en:(01)00:00:00:000
00:03:26.956 : en:(02)00:03:26:956
00:10:34.467 : en:(03)00:10:34:467
00:20:08.498 : en:(04)00:20:08:498
00:29:56.586 : en:(05)00:29:56:586
00:40:08.155 : en:(06)00:40:08:155
00:46:49.223 : en:(07)00:46:49:223
00:54:13.625 : en:(08)00:54:13:625
01:02:37.962 : en:(09)01:02:37:962
01:10:17.129 : en:(10)01:10:17:129
01:16:16.613 : en:(11)01:16:16:613
01:23:35.552 : en:(12)01:23:35:552
01:26:58.546 : en:(13)01:26:58:546


Данную раздачу можно скачивать при отсутствии сидирующих на трекере.

_________________
Скрыт Profile PM
Показать сообщения:    
Ответить на тему

Текущее время: 16-Окт 01:45

Часовой пояс: GMT + 3



Вы не можете начинать темы
Вы не можете отвечать на сообщения
Вы не можете редактировать свои сообщения
Вы не можете удалять свои сообщения
Вы не можете голосовать в опросах
Вы не можете прикреплять файлы к сообщениям
Вы не можете скачивать файлы
Рейтинг торрент трекеров - UpTracker.ru Анализ веб сайта Яндекс.Метрика
службы мониторинга серверов