Loading...
Error

(Шансон) Василий Царев - За Дымкой Питерской Тиши - (VVTcSPb) - 2014 - Flac-Cue - (image + .cue) - lossless

Ответить на тему
 
Автор Сообщение

antoroman

Стаж: 4 года 3 месяца

Сообщений: 2

Откуда: СПб

Россия

Режим только чтение: НЕТ

post 01-Сен-2015 03:07

Quote

В.В.Царев - За Дымкой Питерской Тиши - 2014 -

Страна: Россия
Жанр: Шансон
Год выпуска: 2014
Формат: FLAC (image + .cue)
Битрейт аудио: lossless
Продолжительность: 01:18:56
.
Формат записи/Источник записи: CD
Издание: Подарочный
Издатель(лейбл): S@M-20032014-SPb
Наличие сканов в содержимом раздачи: Да
.
В.В.Царев - За Дымкой Питерской Тиши - VVTcSPb-2014 - Flac-Cue
.
Треклист:
.
001 - Отчего По Ночам - (Посвящается Равику Смирнову) - (Стихи и муз. В.В.Царева) - (3:54)
002 - Старенький Город - (Стихи и муз. В.В.Царева) - (5:37)
003 - Белые Ночи - (Посвящается Володе Бутину) - (Стихи и муз. В.В.Царева) - (3:53)
004 - Ах Дожди - (Посвящается Наташе Ростовцевой-Попель) - (Стихи и муз. В.В.Царева) - (4:27)
005 - Город Ахнул - (Посвящается Д.М.Генкину) - (Стихи и муз. В.В.Царева) - (3:25)
006 - Не Ревнуй, Петербург - (Стихи и муз. В.В.Царева) - (Синтезатор: А.П.Донских-Романов) - (3:47)
007 - Зимний Вальс - (Посвящается Владимир Мурасов) - (Стихи и муз. В.В.Царева) - (6:04)
008 - Снега Море - (Стихи и муз. В.В.Царева) - (5:17)
009 - Уходишь Ты - (Посвящается Марине Будзинской) - (Стихи и муз. В.В.Царева) - (5:10)
010 - Колыбельная Маме - (Светлой памяти, Маме- Асе Новиковой) - (Стихи и муз. В.В.Царева) - (6:08)
011 - Вальс Наташи - (Посвящается Наташе Царевой) - (Стихи и муз. В.В.Царева) - (3:59)
012 - Кино Вино и Домино - (Посвящается Людмиле Гурченко) - (Стихи и муз. В.В.Царева) - (6:15)
013 - Белый Вальс - (Посвящается Алле Цитриной-Резниковой) - (Стихи и Муз. В.В.Царева) - (4:51)
014 - Что Ты Ждешь Капитан? - (Стихи и муз. В.В.Царева) - (2:58)
015 - Бескозырка Набекрень - (Посвящается Саше Сапожникову) - (Стихи и муз. В.В.Царева) - (Синтезатор: А.П.Донских-Романов) - (4:35)
016 - Прощай Одиночество - (Стихи и муз. В.В.Царева) - (4:10)
017 - Bonus: - Ах Дожди - (Remix-2014) - (Стихи и муз. В.В.Царева) - (3:55)
.
Доп. информация:
.
Сканы Диска:
* 001 - - 002 - - 003 -
* 004 - - 005 - - 006 -
.
Об Авторе:
Об авторе.
Интернет Имя - VVTcSPb
Царев Василий Васильевич,
- преподаватель Санкт-Петербургского государственного Университета культуры и искусства. Сценарист, режиссер, продюсер. Организатор, преподаватель Школ руководителей дискотек в Ленинграде -1980годы., Организатор, преподаватель Школы менеджеров досуга в 90-х годах, Организатор ряда общественных организаций, Председатель Союза Христианских предпринимателей 1993-96г.г., Участник Всемирного Конгресса христианских предпринимателей в Мехико 1993г. Автор учебника «Самодеятельные дискотеки», автор ряда статей в газетах и журналах в 80-90 -х годах. Окончил ЛГИК, прошел курс обучения «Основы предпринимательства», по программе Миннесотского Университета.
Член творческого союза работников культуры.
Лит-ра: Житинский А.Н., Путешествие рок-дилетанта: Музыкальный роман. -Л.1990. стр.88.,
Царев В.В. Наездник на пластинке или режиссер общения. «Аврора» №7,1980.
Царев В.В. Методические основы работы дискотек. самодеятельные ВИА и дискотеки. - М. Профиздат, 1987.
Страница в ВК - http://vk.com/karaokespb
.
Лог проверки качества материала:
AUDIOCHECKER v2.0 beta (build 457) - by Dester - opdester@freemail.hu
~~~~~~~~~~~~~~~~~~~~~~~~~~~~~~~~~~
-=== НЕ РЕДАКТИРУЙТЕ ЭТОТ ФАЙЛ! ===-

Начато: вторник, 01. 09. 2015. - 0:28.42
Найдено файлов: 1

1 -===- C:\! - ToP\В.В.Царев - За Дымкой Питерской Тиши - VVTcSPb-2014 - Flac-Cue\В.В.Царев - VVTcSPb - За Дымкой Питерской Тиши - 2014 - Flac-Cue.flac
Извлечение успешно выполнено
Заключение: этот трек - CDDA с вероятностью 100%
Временный файл удалён.

Завершено: вторник, 01. 09. 2015. - 0:35.47 (Время операции: 0:07.05)
.
Cue:
PERFORMER "В.В.Царев - VVTcSPb"
TITLE "За Дымкой Питерской Тиши - 2014 - Flac-Cue"
FILE "В.В.Царев - VVTcSPb - За Дымкой Питерской Тиши - 2014 - Flac-Cue.flac" WAVE
TRACK 01 AUDIO
TITLE "От Чего По Ночам - VVTcSPb-St-SaM-24.01.2014"
INDEX 01 00:00:00
TRACK 02 AUDIO
TITLE "Старенький Город - VVTcSPb-St-SaM-01.03.2014"
INDEX 01 03:56:00
TRACK 03 AUDIO
TITLE "Белые Ночи - VVTcSPb-St-SaM-13.01.2014"
INDEX 01 09:34:74
TRACK 04 AUDIO
TITLE "Ах Дожди - VVTcSPb-St-SaM-13.01.2014"
INDEX 01 13:29:74
TRACK 05 AUDIO
TITLE "Город АхНул - VVTcSPb-St-SaM-13.01.2014"
INDEX 01 17:59:01
TRACK 06 AUDIO
TITLE "Не Ревнуй Петербург - VVTcSPb-St-SaM-01.03.2014"
INDEX 01 21:25:56
TRACK 07 AUDIO
TITLE "Зимний Вальс - VVTcSPb-St-SaM-13.01.2014"
INDEX 01 25:14:56
TRACK 08 AUDIO
TITLE "Снега Море - VVTcSPb-St-SaM-05.03.2014"
INDEX 01 31:20:19
TRACK 09 AUDIO
TITLE "Уходишь Ты - VVTcSPb-St-SaM-02.03.2014"
INDEX 01 36:39:19
TRACK 10 AUDIO
TITLE "Колыбельная Маме - VVTcSPb-St-SaM-02.03.2014"
INDEX 01 41:51:18
TRACK 11 AUDIO
TITLE "Вальс Наташи - VVTcSPb-St-SaM-13.01.2014"
INDEX 01 48:01:18
TRACK 12 AUDIO
TITLE "Кино Вино Домино - VVTcSPb-St-SaM-13.01.2014"
INDEX 01 52:02:18
TRACK 13 AUDIO
TITLE "Белый Вальс - VVTcSPb-St-SaM-13.01.2014"
INDEX 01 58:19:54
TRACK 14 AUDIO
TITLE "Что Ты Ждешь Капитан - VVTcSPb-St-SaM-17.01.2014"
INDEX 01 63:12:54
TRACK 15 AUDIO
TITLE "Бескозырка На Бекрень - VVTcSPb-St-SaM-13.01.2014"
INDEX 01 66:12:55
TRACK 16 AUDIO
TITLE "Прощай Одиночество - VVTcSPb-St-SaM-17.01.2014"
INDEX 01 70:49:56
TRACK 17 AUDIO
TITLE "Ах Дожди - Remix - VVTcSPb-St-SaM-21.01.2014"
INDEX 01 75:01:56
.
ДРУГИЕ
Мои Раздачи:
* ASaMSPb - Мы - ЛиР - 001 - (Монологи в Стихах) - 2015 - Live - Flac-Cue - lossless - http://torrent.rus.ec/viewtopic.php?t=24868

_________________
antoroman
Вне форума Profile PM
Показать сообщения:    
Ответить на тему

Текущее время: 07-Дек 20:14

Часовой пояс: GMT + 3



Вы не можете начинать темы
Вы не можете отвечать на сообщения
Вы не можете редактировать свои сообщения
Вы не можете удалять свои сообщения
Вы не можете голосовать в опросах
Вы не можете прикреплять файлы к сообщениям
Вы не можете скачивать файлы
Рейтинг торрент трекеров - UpTracker.ru Анализ веб сайта Яндекс.Метрика
службы мониторинга серверов