Loading...
Error

Мир Юрского периода / Jurassic World (Колин Треворроу) [2015 г., фантастика, боевик, триллер, приключения, BDRip 1080p 3D] DUB |Лицензия| Half OverUnder / Вертикальная анаморфная стереопара

Ответить на тему
 
Автор Сообщение

Theseus

Стаж: 8 лет 2 месяца

Сообщений: 4132

Режим только чтение: НЕТ

post 02-Окт-2015 14:38

Quote


Мир Юрского периода / Jurassic World

Год выпуска: 2015
Страна: США
Жанр: фантастика, боевик, триллер, приключения
Продолжительность: 02:04:22
Перевод: Профессиональный (полное дублирование)
Режиссер: Колин Треворроу
В ролях: Крис Пратт, Брайс Даллас Ховард, Винсент Д’Онофрио, Ник Дж. Робинсон, Тай Симпкинс, Омар Си, Ирфан Кхан, Брайан Ти, Джейк Джонсон, Б.Д. Вонг
Описание: Тысячи людей спешат увидеть Мир Юрского периода, но безопасное на первый взгляд развлечение может обернуться угрозой для всего человечества ...

Качество: BDRip 1080p 3D
Формат: MKV
Видео кодек: x.264
Аудио кодек: AC3
Видео: MPEG-4 AVC / 23,976 fps / 1920х1080 / 19.8 Mbpss
Аудио 1 RUS: AC3 / 48 KHz / 5.1 ch / 640 Kbps
Аудио 2 ENG: AC3 / 48 KHz / 5.1 ch / 640 Kbps
Субтитры: Русские, английские, украинские
Навигация по главам: есть
Формат 3D: Half OverUnder / Вертикальная анаморфная стереопара
Порядок ракурсов: левый ракурс первый
General
Unique ID : 216336223741649438004979757240546328937 (0xA2C0D754AFDA6E4A87649FC4E5318169)
Complete name : E:JurassicWorld(2015)3D-halfOU(Ash61)JurassicWorld(2015)3D-halfOU(Ash61).mkv
Format : Matroska
Format version : Version 2
File size : 18.7 GiB
Duration : 2h 4mn
Overall bit rate : 21.5 Mbps
Movie name : Мир Юрского периода / Jurassic World (2015) в 3Д
Encoded date : UTC 2015-09-27 12:20:25
Writing application : mkvmerge v5.8.0 ('No Sleep / Pillow') built on Sep 2 2012 15:37:04
Writing library : libebml v1.2.3 + libmatroska v1.3.0

Video
ID : 1
Format : AVC
Format/Info : Advanced Video Codec
Format profile : High@L4.1
Format settings, CABAC : Yes
Format settings, ReFrames : 4 frames
Codec ID : V_MPEG4/ISO/AVC
Duration : 2h 4mn
Bit rate : 19.8 Mbps
Width : 1 920 pixels
Height : 1 080 pixels
Display aspect ratio : 16:9
Frame rate mode : Constant
Frame rate : 23.976 fps
Color space : YUV
Chroma subsampling : 4:2:0
Bit depth : 8 bits
Scan type : Progressive
Bits/(Pixel*Frame) : 0.397
Stream size : 17.2 GiB (92%)
Title : BDRip by Ash61
Writing library : x264 core 146 r2538 121396c
Encoding settings : cabac=1 / ref=4 / deblock=1:-3:-3 / analyse=0x3:0x113 / me=umh / subme=10 / psy=1 / psy_rd=1.00:0.00 / mixed_ref=1 / me_range=32 / chroma_me=1 / trellis=2 / 8x8dct=1 / cqm=0 / deadzone=21,11 / fast_pskip=1 / chroma_qp_offset=-2 / threads=12 / lookahead_threads=3 / sliced_threads=0 / nr=0 / decimate=1 / interlaced=0 / bluray_compat=0 / constrained_intra=0 / bframes=10 / b_pyramid=2 / b_adapt=2 / b_bias=0 / direct=3 / weightb=1 / open_gop=0 / weightp=2 / keyint=250 / keyint_min=23 / scenecut=40 / intra_refresh=0 / rc_lookahead=60 / rc=crf / mbtree=1 / crf=17.0 / qcomp=0.70 / qpmin=0 / qpmax=69 / qpstep=4 / vbv_maxrate=40000 / vbv_bufsize=30000 / crf_max=0.0 / nal_hrd=none / filler=0 / frame-packing=4 / ip_ratio=1.40 / aq=1:0.70
Language : English
Default : Yes
Forced : No

Audio #1
ID : 2
Format : AC-3
Format/Info : Audio Coding 3
Mode extension : CM (complete main)
Format settings, Endianness : Big
Codec ID : A_AC3
Duration : 2h 4mn
Bit rate mode : Constant
Bit rate : 640 Kbps
Channel(s) : 6 channels
Channel positions : Front: L C R, Side: L R, LFE
Sampling rate : 48.0 KHz
Bit depth : 16 bits
Compression mode : Lossy
Stream size : 569 MiB (3%)
Title : Дубляж - BD 3D Eur
Language : Russian
Default : Yes
Forced : No

Audio #2
ID : 3
Format : AC-3
Format/Info : Audio Coding 3
Mode extension : CM (complete main)
Format settings, Endianness : Big
Codec ID : A_AC3
Duration : 2h 4mn
Bit rate mode : Constant
Bit rate : 640 Kbps
Channel(s) : 6 channels
Channel positions : Front: L C R, Side: L R, LFE
Sampling rate : 48.0 KHz
Bit depth : 16 bits
Compression mode : Lossy
Stream size : 569 MiB (3%)
Title : Original - BD 3D Eur
Language : English
Default : No
Forced : No

Text #1
ID : 4
Format : UTF-8
Codec ID : S_TEXT/UTF8
Codec ID/Info : UTF-8 Plain Text
Title : Форсированные - BD 3D Eur
Language : Russian
Default : Yes
Forced : No

Text #2
ID : 5
Format : UTF-8
Codec ID : S_TEXT/UTF8
Codec ID/Info : UTF-8 Plain Text
Title : Полные - BD 3D Eur
Language : Russian
Default : No
Forced : No

Text #3
ID : 6
Format : UTF-8
Codec ID : S_TEXT/UTF8
Codec ID/Info : UTF-8 Plain Text
Title : Полные - BD 3D Eur
Language : Ukrainian
Default : No
Forced : No

Text #4
ID : 7
Format : UTF-8
Codec ID : S_TEXT/UTF8
Codec ID/Info : UTF-8 Plain Text
Title : SDH - BD 3D Eur
Language : English
Default : No
Forced : No

Menu
00:00:00.000 : :1
00:06:59.169 : :2
00:11:01.828 : :3
00:18:28.441 : :4
00:25:34.867 : :5
00:31:20.837 : :6
00:39:23.861 : :7
00:44:07.854 : :8
00:48:57.226 : :9
00:55:51.056 : :10
01:01:21.344 : :11
01:09:50.561 : :12
01:15:25.479 : :13
01:23:51.860 : :14
01:30:14.701 : :15
01:36:45.425 : :16
01:41:15.653 : :17
01:47:35.282 : :18
01:53:06.029 : :19
01:55:37.556 : :20



Скрыт Profile PM
Показать сообщения:    
Ответить на тему

Текущее время: 14-Дек 23:58

Часовой пояс: GMT + 3



Вы не можете начинать темы
Вы не можете отвечать на сообщения
Вы не можете редактировать свои сообщения
Вы не можете удалять свои сообщения
Вы не можете голосовать в опросах
Вы не можете прикреплять файлы к сообщениям
Вы не можете скачивать файлы
Рейтинг торрент трекеров - UpTracker.ru Анализ веб сайта Яндекс.Метрика
службы мониторинга серверов