Loading...
Error

Невский (Серии 1—30 из 30) (Андрей Коршунов, Алексей Павлов, Игорь Драка) [2015/16, боевик, криминал, HDTVRip]

Ответить на тему
 
Автор Сообщение

O.S.A.

Стаж: 2 года 10 месяцев

Сообщений: 190

СССР

Режим только чтение: НЕТ

post 23-Апр-2016 01:36

Quote



Невский


  • Год выпуска: 2015/16
  • Страна: Россия / «Триикс Медиа»
  • Жанр: боевик, криминал
  • Продолжительность: 30 х ~00:43:00
  • Перевод: Не требуется

  • Режиссёр: Андрей Коршунов, Алексей Павлов, Игорь Драка

  • В ролях: Антон Васильев, Андрей Гульнев, Сергей Кошонин, Дмитрий Паламарчук, Мария Капустинская, Наталья Дворецкая, Александр Кудренко, Александр Саюталин, Николай Смирнов, Юрий Архангельский...

  • Капитан полиции Павел Семенов служит в одном из спальных районов Санкт-Петербурга. Павел привык разнимать пьяные драки и в одиночку входить в притоны наркоманов, чтобы провести очередной арест. Он знает, что если будет думать и рассуждать, его просто убьют. И привык сначала действовать, а потом разбираться, потому что очень хочет остаться в живых, ведь его дома ждут жена Юля и сын Саша.
    … Рискуя жизнью, он спасает дочь бизнесмена. В благодарность Латышев, отец девочки, содействует переводу Павла на Невский проспект, в самый центр большого города, где служить престижно и выгодно… Но отношения в новом коллективе у Павла не складываются. Большинство коллег заняты вопросами личного обогащения, борьба с преступностью их интересует в последнюю очередь.
    И вскоре Павел начинает подозревать, что его перевод в Центральный район был осуществлен Латышевым с каким-то далеко идущими планами. А когда Павел выходит на след таинственного киллера по кличке Рафаэль, все окончательно запутывается.
    Но в трудной ситуации Павел всегда может положиться на своих друзей из спального района – бывшего напарника Кирилла Назарова и криминального авторитета Алексея Фомина...

  • Премьера в России: 11 апреля 2016 (НТВ)




  • Качество видео: HDTVRip
  • Формат видео: AVI
  • Видео кодек: XviD
  • Аудио кодек: МР3
  • Видео: 624x352 (1.78:1), 25.000 fps, XviD MPEG-4, ~760 kbps avg, 0.139 bit/pixel
  • Аудио: 48.0 kHz, MPEG Audio Layer 3, 2 ch, ~128.00 kbps avg
  • Субтитры: нет


General
Complete name : W:\O.S.A.\Торренты\Завершенные торренты\Nevskij.2016.XviD.HDTVRip.by.GeneralFilm\serija.01.avi
Format : AVI
Format/Info : Audio Video Interleave
File size : 277 MiB
Duration : 43mn 6s
Overall bit rate : 899 Kbps
Writing application : VirtualDubMod 1.5.10.3 | www.virtualdub-fr.org || (build 2550/release)
Writing library : VirtualDubMod build 2550/release

Video
ID : 0
Format : MPEG-4 Visual
Format profile : Advanced Simple@L5
Format settings, BVOP : 1
Format settings, QPel : No
Format settings, GMC : No warppoints
Format settings, Matrix : Custom
Codec ID : XVID
Codec ID/Hint : XviD
Duration : 43mn 6s
Bit rate : 761 Kbps
Width : 624 pixels
Height : 352 pixels
Display aspect ratio : 16:9
Frame rate : 25.000 fps
Color space : YUV
Chroma subsampling : 4:2:0
Bit depth : 8 bits
Scan type : Progressive
Compression mode : Lossy
Bits/(Pixel*Frame) : 0.139
Stream size : 235 MiB (85%)
Writing library : XviD 73

Audio
ID : 1
Format : MPEG Audio
Format version : Version 1
Format profile : Layer 3
Codec ID : 55
Codec ID/Hint : MP3
Duration : 43mn 6s
Bit rate mode : Constant
Bit rate : 128 Kbps
Channel(s) : 2 channels
Sampling rate : 48.0 KHz
Compression mode : Lossy
Stream size : 39.5 MiB (14%)
Alignment : Aligned on interleaves
Interleave, duration : 40 ms (1.00 video frame)
Interleave, preload duration : 504 ms
Writing library : LAME3.99r
Encoding settings : -m s -V 4 -q 0 -lowpass 17 -b 128







_________________
===============================
IGNOSCITO SAEPE ALTERI, NUNQUAM TIBI
Вне форума Profile PM
Показать сообщения:    
Ответить на тему

Текущее время: 11-Дек 13:53

Часовой пояс: GMT + 3



Вы не можете начинать темы
Вы не можете отвечать на сообщения
Вы не можете редактировать свои сообщения
Вы не можете удалять свои сообщения
Вы не можете голосовать в опросах
Вы не можете прикреплять файлы к сообщениям
Вы не можете скачивать файлы
Рейтинг торрент трекеров - UpTracker.ru Анализ веб сайта Яндекс.Метрика
службы мониторинга серверов