Loading...
Error

Гастролёры / Беглецы (Паланга) (Серии 1—16 из 16) (Андрей Щербинин) [2015/16, криминальная комедия, HDTVRip]

Ответить на тему
 
Автор Сообщение

O.S.A.

Стаж: 3 года 6 месяцев

Сообщений: 190

СССР

Режим только чтение: НЕТ

post 26-Апр-2016 01:13

Quote



Гастролёры / Беглецы (Паланга)


  • Год выпуска: 2015/16
  • Страна: Россия / «Продюсерский центр Сергея Жигунова»
  • Жанр: криминальная комедия
  • Продолжительность: 16 х ~00:42:00
  • Перевод: Не требуется

  • Режиссёр: Андрей Щербинин

  • В ролях: Максим Аверин, Алексей Воробьёв, Ксения Кутепова, Арнис Лицитис, Сергей Перегудов, Ивар Калныньш, Екатерина Кузнецова, Сергей Уманов, Кристина Кузьмина, Анна Табанина, Владимир Зайцев, Лембит Ульфсак, Борис Шувалов...

  • В криминальном районе Тамбова живут два брата — Вова Сабонеев (Максим Аверин), владелец популярного среди братвы ресторана, и Мишаня (Алексей Воробьёв), беспечный весельчак, вечно попадающий в переделки. Очередная выходка Мишани провоцирует конфликт между Вовой и местными авторитетами. Братья вынуждены бежать в Литву, с которой у Вовы связаны романтические воспоминания. Именно там родственники планируют начать другую жизнь. И зовут их теперь по-новому — Вовас и Микас, вот только привычки у них остались прежними...

  • Премьера в России: 25 апреля 2016 (НТВ)




  • Качество видео: HDTVRip
  • Формат видео: AVI
  • Видео кодек: XviD
  • Аудио кодек: AC3
  • Видео: 720x400 (1.80:1), 25.000 fps, XviD MPEG-4, ~1640 kbps avg, 0.228 bit/pixel
  • Аудио: 48.0 kHz, AC3 Dolby Digital, 2/0 (L,R) ch, ~192.00 kbps avg
  • Субтитры: нет


Внимание! Раздача ведётся путём добавления новых серий; при каждом добавлении создаётся новый торрент. Чтобы начать докачку новой серии, пользователям необходимо сделать следующее:
(1) остановить скачивание,раздачу,
(2) удалить старый торрент у себя из клиента (старые серии удалять не надо),
(3) скачать новый торрент и запустить его у себя в клиенте вместо старого, при этом указать клиенту путь в старую папку куда и должно происходить скачивание новых серий.
Ваш клиент при этом должен произвести хеширование (проверку) старой папки (если не производит сами - помогите ему сделать это), и будет докачивать только те серии которых у вас ещё нет. Старые серии при этом не удаляются, а продолжают раздаваться!
Eсли вы уже удалили старые серии, то предотвратить повторную закачку старых серий можно, отжав галочку в соответствующих местах при запуске нового торрента. По возможности, желательно не удалять старые серии как можно дольше чтобы релизёр не столько продолжал раздавать старые серии, а смог сконцентрироваться на новых.
General
Complete name : W:\O.S.A.\Торренты\Завершенные торренты\Gastrolery.2015.HDTVRip.Files-x\01.Gastrolery.2015.HDTVRip.Files-x.avi
Format : AVI
Format/Info : Audio Video Interleave
File size : 550 MiB
Duration : 41mn 44s
Overall bit rate : 1 842 Kbps
Writing application : VirtualDubModRus 1.5.10.2 (build 2542/release)
Writing library : VirtualDubMod build 2542/release

Video
ID : 0
Format : MPEG-4 Visual
Format profile : Advanced Simple@L5
Format settings, BVOP : 1
Format settings, QPel : No
Format settings, GMC : No warppoints
Format settings, Matrix : Custom
Codec ID : XVID
Codec ID/Hint : XviD
Duration : 41mn 44s
Bit rate : 1 640 Kbps
Width : 720 pixels
Height : 400 pixels
Display aspect ratio : 16:9
Frame rate : 25.000 fps
Color space : YUV
Chroma subsampling : 4:2:0
Bit depth : 8 bits
Scan type : Progressive
Compression mode : Lossy
Bits/(Pixel*Frame) : 0.228
Stream size : 490 MiB (89%)
Writing library : XviD 73

Audio
ID : 1
Format : AC-3
Format/Info : Audio Coding 3
Mode extension : CM (complete main)
Codec ID : 2000
Duration : 41mn 44s
Bit rate mode : Constant
Bit rate : 192 Kbps
Channel(s) : 2 channels
Channel positions : Front: L R
Sampling rate : 48.0 KHz
Bit depth : 16 bits
Compression mode : Lossy
Stream size : 57.3 MiB (10%)
Alignment : Split accross interleaves
Interleave, duration : 40 ms (1.00 video frame)
Interleave, preload duration : 500 ms








Последний раз редактировалось: O.S.A. (30-04-2016 01:20), всего редактировалось 4 раз(а)
Вне форума Profile PM

O.S.A.

Стаж: 3 года 6 месяцев

Сообщений: 190

СССР

Режим только чтение: НЕТ

post 26-Апр-2016 01:14 (спустя 39 секунд)

Quote

26.04.2016 добавлены серии 1—3 !!!
27.04.2016 добавлены серии 4—6 !!!
28.04.2016 добавлены серии 7—9 !!!
29.04.2016 добавлены серии 10—12 !!!
30.04.2016 добавлены заключительные серии 13—16 !!!
Вне форума Profile PM
Показать сообщения:    
Ответить на тему

Текущее время: 24-Июл 11:57

Часовой пояс: GMT + 3



Вы не можете начинать темы
Вы не можете отвечать на сообщения
Вы не можете редактировать свои сообщения
Вы не можете удалять свои сообщения
Вы не можете голосовать в опросах
Вы не можете прикреплять файлы к сообщениям
Вы не можете скачивать файлы
Рейтинг торрент трекеров - UpTracker.ru Анализ веб сайта Яндекс.Метрика
службы мониторинга серверов