Loading...
Error

Преступник / Criminal (Ариэль Вромен) [2016 г., фантастика, боевик, триллер, драма, криминал, детектив, WEBRip 2160p] DUB | Чистый звук

Ответить на тему
 
Автор Сообщение

Theseus

Стаж: 10 лет

Сообщений: 5011

Режим только чтение: НЕТ

post 29-Июн-2016 18:46

Quote

Преступник / Criminal

Год выпуска: 2016
Страна: Великобритания, США
Жанр: фантастика, боевик, триллер, драма, криминал, детектив
Продолжительность: 01:52:49
Перевод: Профессиональный (полное дублирование) [Чистый звук]
Режиссер: Ариэль Вромен
В ролях: Кевин Костнер, Гари Олдман, Томми Ли Джонс, Райан Рейнольдс, Элис Ив, Галь Гадот, Скотт Эдкинс, Майкл Питт, Антье Трауэ, Амори Ноласко
Описание: Это история о том, насколько важны для человека воспоминания и насколько высоки моральные принципы сотрудников правоохранительных органов. Она начинается с внезапной смерти одного из самых ценных оперативников Центрального разведывательного управления. Он не завершил свою последнюю, очень ответственную миссию. В результате над миром нависла нешуточная опасность. В свете таких событий руководство ЦРУ принимает очень нетривиальное решение – передать все воспоминания, навыки и знания погибшего агента другому человеку.
Для воплощения замысла в жизнь в одной из американских тюрем находят опасного преступника, приговорённого к смертной казни. Терять ему нечего, значит на сомнительный эксперимент он обязательно должен согласиться. А потом разведслужба получит нового оперативника, способного довести незавершённое дело до конца и раскрыть крупный международный заговор.

Качество: WEBRip 2160p
Формат: MKV
Видео кодек: x.264
Аудио кодек: AC3
Видео: AVC, 3840x1600 (2.40:1), 8002 Kbps, 24.000 fps
Аудио: AC-3, 48.0 KHz, 2 ch, 192 Kbps, CBR
Субтитры: Корейские (вшитые / неотключаемые)
Прежде чем скачивать фильм полностью, скачайте "сэмпл", и проверьте будет ли воспроизводится видео на вашем устройстве!
General
Unique ID : 197285623764261008167852620300358826639 (0x946BD43BFF0B9302B2D21D93BF68BA8F)
Complete name : Criminal.2016.WEB-DL.2160p.ExKinoRay.mkv
Format : Matroska
Format version : Version 4 / Version 2
File size : 6.46 GiB
Duration : 1h 52mn
Overall bit rate mode : Variable
Overall bit rate : 8 195 Kbps
Movie name : Criminal.2016.WEB-DL.2160p.ExKinoRay
Encoded date : UTC 2016-06-25 21:32:27
Writing application : mkvmerge v8.3.0 ('Over the Horizon') 64bit
Writing library : libebml v1.3.1 + libmatroska v1.4.2

Video
ID : 1
Format : AVC
Format/Info : Advanced Video Codec
Format profile : High@L5.1
Format settings, CABAC : Yes
Format settings, ReFrames : 4 frames
Codec ID : V_MPEG4/ISO/AVC
Duration : 1h 52mn
Bit rate mode : Variable
Bit rate : 8 002 Kbps
Maximum bit rate : 40.0 Mbps
Width : 3 840 pixels
Height : 1 600 pixels
Display aspect ratio : 2.40:1
Frame rate mode : Constant
Frame rate : 24.000 fps
Color space : YUV
Chroma subsampling : 4:2:0
Bit depth : 8 bits
Scan type : Progressive
Bits/(Pixel*Frame) : 0.054
Stream size : 6.31 GiB (98%)
Language : English
Default : Yes
Forced : No

Audio
ID : 2
Format : AC-3
Format/Info : Audio Coding 3
Mode extension : CM (complete main)
Format settings, Endianness : Big
Codec ID : A_AC3
Duration : 1h 52mn
Bit rate mode : Constant
Bit rate : 192 Kbps
Channel(s) : 2 channels
Channel positions : Front: L R
Sampling rate : 48.0 KHz
Frame rate : 31.250 fps (1536 spf)
Compression mode : Lossy
Delay relative to video : 20s 150ms
Stream size : 154 MiB (2%)
Title : DUB [Line]
Language : Russian
Default : Yes
Forced : No




Скрыт Profile PM
Показать сообщения:    
Ответить на тему

Текущее время: 14-Ноя 18:49

Часовой пояс: GMT + 3



Вы не можете начинать темы
Вы не можете отвечать на сообщения
Вы не можете редактировать свои сообщения
Вы не можете удалять свои сообщения
Вы не можете голосовать в опросах
Вы не можете прикреплять файлы к сообщениям
Вы не можете скачивать файлы
Рейтинг торрент трекеров - UpTracker.ru Анализ веб сайта Яндекс.Метрика
службы мониторинга серверов