Loading...
Error

Кровоточащая сталь / Ji qi zhi xue / Bleeding Steel (Чжан Лицзя) [2017, фантастика, боевик, триллер, WEBRip 1080p] L | HDrezka Studio

Ответить на тему
 
Автор Сообщение

Theseus

Стаж: 9 лет 2 месяца

Сообщений: 4714

Режим только чтение: НЕТ

post 06-Мар-2018 18:29

Quote

Кровоточащая сталь / Ji qi zhi xue / Bleeding Steel

Год выпуска: 2017
Производство: Китай, Гонконг
Жанр: фантастика, боевик, триллер
Продолжительность: 01:49:17
Перевод: Любительский многоголосый [HDrezka Studio]
Субтитры: Китайские, английские (вшитые)
Режиссер: Чжан Лицзя
В ролях: Джеки Чан, Каллэн Мулвей, Тесс Хобрич, Дэмиен Гарви, Ким Джинджелл, Шоу Ло, Нана Оу-ян, Ольга Миллер, Темур Мамисашвили, Брахим Ачаббаке, Брендан Бирн
Описание: Крутой агент спецназа пытается защитить молодую женщину от криминальной группировки. И в то же время он чувствует с ней странную связь, как будто они встречались в другой жизни.

Качество: WEBRip 1080p
Формат: MKV
Видео кодек: x.264
Аудио кодек: AC3
Видео: AVC, 1920x816 (2.35:1), 2596 kbps, 25 fps, 0,066 bpp
Аудио: AC3, 48.0 KHz, 2 ch, 192 Kbps, CBR

Рекламы нет !
General
Unique ID : 174871936346504985258948008250095102841 (0x838F1C20109C0EE150574265DF76EB79)
Complete name : E:Bleeding.Steel.2017.1080p.WEBRip.x264.mkv
Format : Matroska
Format version : Version 4 / Version 2
File size : 2.13 GiB
Duration : 1 h 49 min
Overall bit rate : 2 790 kb/s
Encoded date : UTC 2018-03-04 15:17:28
Writing application : mkvmerge v21.0.0 ('Tardigrades Will Inherit The Earth') 64-bit
Writing library : libebml v1.3.5 + libmatroska v1.4.8

Video
ID : 1
Format : AVC
Format/Info : Advanced Video Codec
Format profile : High@L4
Format settings, CABAC : Yes
Format settings, ReFrames : 4 frames
Codec ID : V_MPEG4/ISO/AVC
Duration : 1 h 49 min
Bit rate : 2 596 kb/s
Width : 1 920 pixels
Height : 816 pixels
Display aspect ratio : 2.35:1
Frame rate mode : Constant
Frame rate : 25.000 FPS
Color space : YUV
Chroma subsampling : 4:2:0
Bit depth : 8 bits
Scan type : Progressive
Bits/(Pixel*Frame) : 0.066
Stream size : 1.98 GiB (93%)
Language : Chinese
Default : Yes
Forced : No

Audio
ID : 2
Format : AC-3
Format/Info : Audio Coding 3
Mode extension : CM (complete main)
Format settings, Endianness : Big
Codec ID : A_AC3
Duration : 1 h 49 min
Bit rate mode : Constant
Bit rate : 192 kb/s
Channel(s) : 2 channels
Channel positions : Front: L R
Sampling rate : 48.0 kHz
Frame rate : 31.250 FPS (1536 spf)
Compression mode : Lossy
Delay relative to video : -123 ms
Stream size : 150 MiB (7%)
Title : MVO | HDrezka Studio
Language : Russian
Default : Yes
Forced : No



Скрыт Profile PM
Показать сообщения:    
Ответить на тему

Текущее время: 20-Ноя 15:51

Часовой пояс: GMT + 3



Вы не можете начинать темы
Вы не можете отвечать на сообщения
Вы не можете редактировать свои сообщения
Вы не можете удалять свои сообщения
Вы не можете голосовать в опросах
Вы не можете прикреплять файлы к сообщениям
Вы не можете скачивать файлы
Рейтинг торрент трекеров - UpTracker.ru Анализ веб сайта Яндекс.Метрика
службы мониторинга серверов