Loading...
Error

Безбашенные / Renegades (Стивен Куэйл) [2017 г., боевик, триллер, BDRip 1080p] DUB | Лицензия

Ответить на тему
 
Автор Сообщение

Theseus

Стаж: 9 лет 2 месяца

Сообщений: 4714

Режим только чтение: НЕТ

post 06-Мар-2018 20:02

Quote

Безбашенные / Renegades

Год выхода: 2017
Страна: Франция, Германия
Жанр: боевик, триллер
Продолжительность: 01:45:56
Перевод: Профессиональный (полное дублирование)
Субтитры: русские, английские
Режиссер: Стивен Куэйл
В ролях: Дж.К. Симмонс, Сильвия Хукс, Салливан Степлтон, Юэн Бремнер, Клеменс Шик, Диармед Мёрта, Чарли Бьюли, Димитрий Леонидас, Славко Собин, Джошуа Генри
О фильме: На дне озера охваченной войной Боснии команда спецназа ВМС США «Морские котики» находит клад — золотые слитки стоимостью более $300 млн. Миссия команды, нарушившей присягу и рискующей жизнью — поднять золото со дна озера. Для других она была бы невыполнимой, но только не для этих безбашенных парней: у них есть 10 часов, чтобы завершить задуманное..

Качество: BDRip 1080p
Формат: MKV
Видео кодек: x.264
Аудио кодек: AC3/DTS
Видео: MPEG4-AVC, 1920x804 (2.40:1), 24,000 fps, 11,5 Mbps avg
Аудио #1: 48 kHz, DTS, 6 ch, 1509 kbps avg | RUS
Аудио #2: 48 kHz, AC3, 6 ch, 640 kbps avg | RUS
Аудио #3: 48 kHz, DTS, 6 ch, 1509 kbps avg | ENG
General
Unique ID : 298896244492662916785752304787687348535 (0xE0DD529FF6586FA69DD7B08E05121937)
Complete name : Renegades.Commando.D'Assalto.2017.Lic.BDRip.1080p.ExKinoRay.mkv
Format : Matroska
Format version : Version 4 / Version 2
File size : 11.2 GiB
Duration : 1 h 45 min
Overall bit rate : 15.1 Mb/s
Movie name : Renegades - Commando D'Assalto 2017 from ExKinoRay
Encoded date : UTC 2018-03-06 01:15:32
Writing application : mkvmerge v21.0.0 ('Tardigrades Will Inherit The Earth') 64-bit
Writing library : libebml v1.3.5 + libmatroska v1.4.8

Video
ID : 1
Format : AVC
Format/Info : Advanced Video Codec
Format profile : High@L4.1
Format settings : CABAC / 5 Ref Frames
Format settings, CABAC : Yes
Format settings, ReFrames : 5 frames
Codec ID : V_MPEG4/ISO/AVC
Duration : 1 h 45 min
Bit rate : 11.5 Mb/s
Width : 1 920 pixels
Height : 804 pixels
Display aspect ratio : 2.40:1
Frame rate mode : Constant
Frame rate : 24.000 FPS
Color space : YUV
Chroma subsampling : 4:2:0
Bit depth : 8 bits
Scan type : Progressive
Bits/(Pixel*Frame) : 0.310
Stream size : 8.51 GiB (76%)
Writing library : x264 core 148 r2705 3f5ed56
Encoding settings : cabac=1 / ref=5 / deblock=1:-2:-2 / analyse=0x3:0x133 / me=umh / subme=11 / psy=1 / psy_rd=1.05:0.05 / mixed_ref=1 / me_range=32 / chroma_me=1 / trellis=2 / 8x8dct=1 / cqm=0 / deadzone=21,11 / fast_pskip=0 / chroma_qp_offset=-3 / threads=12 / lookahead_threads=2 / sliced_threads=0 / nr=0 / decimate=0 / interlaced=0 / bluray_compat=0 / constrained_intra=0 / bframes=8 / b_pyramid=2 / b_adapt=2 / b_bias=0 / direct=3 / weightb=1 / open_gop=0 / weightp=2 / keyint=240 / keyint_min=24 / scenecut=40 / intra_refresh=0 / rc_lookahead=50 / rc=2pass / mbtree=0 / bitrate=11500 / ratetol=1.0 / qcomp=0.60 / qpmin=0 / qpmax=69 / qpstep=4 / cplxblur=20.0 / qblur=0.5 / vbv_maxrate=50000 / vbv_bufsize=62500 / nal_hrd=none / filler=0 / ip_ratio=1.40 / pb_ratio=1.30 / aq=3:0.80
Language : English
Default : Yes
Forced : No

Audio #1
ID : 2
Format : DTS
Format/Info : Digital Theater Systems
Codec ID : A_DTS
Duration : 1 h 45 min
Bit rate mode : Constant
Bit rate : 1 509 kb/s
Channel(s) : 6 channels
Channel positions : Front: L C R, Side: L R, LFE
Sampling rate : 48.0 kHz
Frame rate : 93.750 FPS (512 SPF)
Bit depth : 24 bits
Compression mode : Lossy
Stream size : 1.11 GiB (10%)
Title : Dub [License]
Language : Russian
Default : Yes
Forced : No

Audio #2
ID : 3
Format : AC-3
Format/Info : Audio Coding 3
Codec ID : A_AC3
Duration : 1 h 45 min
Bit rate mode : Constant
Bit rate : 640 kb/s
Channel(s) : 6 channels
Channel positions : Front: L C R, Side: L R, LFE
Sampling rate : 48.0 kHz
Frame rate : 31.250 FPS (1536 SPF)
Bit depth : 16 bits
Compression mode : Lossy
Stream size : 483 MiB (4%)
Title : Dub [License]
Language : Russian
Service kind : Complete Main
Default : No
Forced : No

Audio #3
ID : 4
Format : DTS
Format/Info : Digital Theater Systems
Codec ID : A_DTS
Duration : 1 h 45 min
Bit rate mode : Constant
Bit rate : 1 509 kb/s
Channel(s) : 6 channels
Channel positions : Front: L C R, Side: L R, LFE
Sampling rate : 48.0 kHz
Frame rate : 93.750 FPS (512 SPF)
Bit depth : 24 bits
Compression mode : Lossy
Stream size : 1.12 GiB (10%)
Title : Original
Language : English
Default : No
Forced : No

Text #1
ID : 5
Format : UTF-8
Codec ID : S_TEXT/UTF8
Codec ID/Info : UTF-8 Plain Text
Duration : 1 h 34 min
Bit rate : 66 b/s
Count of elements : 924
Stream size : 45.9 KiB (0%)
Title : Full
Language : Russian
Default : No
Forced : No

Text #2
ID : 6
Format : UTF-8
Codec ID : S_TEXT/UTF8
Codec ID/Info : UTF-8 Plain Text
Duration : 1 h 34 min
Bit rate : 46 b/s
Count of elements : 878
Stream size : 32.1 KiB (0%)
Title : Full
Language : English
Default : No
Forced : No

Menu
00:00:00.000 : en:Chapter 1
00:00:49.500 : en:Chapter 2
00:08:55.291 : en:Chapter 3
00:18:57.291 : en:Chapter 4
00:25:43.458 : en:Chapter 5
00:34:06.291 : en:Chapter 6
00:45:40.208 : en:Chapter 7
00:51:21.666 : en:Chapter 8
00:59:01.416 : en:Chapter 9
01:08:51.208 : en:Chapter 10
01:15:51.875 : en:Chapter 11
01:25:10.750 : en:Chapter 12
01:36:09.875 : en:Chapter 13



Скрыт Profile PM
Показать сообщения:    
Ответить на тему

Текущее время: 20-Ноя 15:49

Часовой пояс: GMT + 3



Вы не можете начинать темы
Вы не можете отвечать на сообщения
Вы не можете редактировать свои сообщения
Вы не можете удалять свои сообщения
Вы не можете голосовать в опросах
Вы не можете прикреплять файлы к сообщениям
Вы не можете скачивать файлы
Рейтинг торрент трекеров - UpTracker.ru Анализ веб сайта Яндекс.Метрика
службы мониторинга серверов