Loading...
Error

Кролик Питер / Peter Rabbit (Уилл Глак) [2018 г., мультфильм, фэнтези, комедия, приключения, семейный, BDRemux] DUB | iTunes

Ответить на тему
 
Автор Сообщение

Theseus

Стаж: 10 лет

Сообщений: 5011

Режим только чтение: НЕТ

post 26-Апр-2018 21:55

Quote

Кролик Питер / Peter Rabbit

Год выпуска: 2018
Производство: Австралия, США
Жанр: Мультфильм, фэнтези, комедия, приключения, семейный
Продолжительность: 01:34:42
Перевод: Профессиональный (полное дублирование) | iTunes
Субтитры: Русские, английские
Режиссер: Уилл Глак
В ролях: Джеймс Корден, Донал Глисон, Сиа, Колин Муди, Сэм Нил, Марго Робби, Элизабет Дебики, Дэйзи Ридли, Роуз Бирн
Описание: Фильм о приключениях маленького и непоседливого крольчонка по имени Питер, который хочет пробраться в огород к грозному фермеру и вдоволь полакомиться там фруктами и овощами.

Качество: BDRemux
Контейнер: MKV
Видео кодек: H.264
Аудио кодек: AC3, DTS-HD
Видео: MPEG-4 AVC, 1920x1080, 26.8 Mbit/s, 23.976 fps
Аудио 1: 48 kHz, AC3, 5.1, 384 Kbps | iTunes | RUS |
Аудио 2: 48 kHz, DTS-HD MA, 5.1, 2222 Kbps | Оригинал | ENG

General
Unique ID : 333453594447913413726410815390969845749 (0xFADCD385D899E2BD83C3CBFF8DBD57F5)
Complete name : Peter.Rabbit.2018.D.BDREMUX.1080p.ExKinoRay.mkv
Format : Matroska
Format version : Version 4 / Version 2
File size : 19.5 GiB
Duration : 1 h 34 min
Overall bit rate mode : Variable
Overall bit rate : 29.5 Mb/s
Movie name : Peter Rabbit 2018 from ExKinoRay
Encoded date : UTC 2018-04-25 19:25:47
Writing application : mkvmerge v22.0.0 ('At The End Of The World') 64-bit
Writing library : libebml v1.3.5 + libmatroska v1.4.8

Video
ID : 1
Format : AVC
Format/Info : Advanced Video Codec
Format profile : High@L4.1
Format settings : CABAC / 2 Ref Frames
Format settings, CABAC : Yes
Format settings, ReFrames : 2 frames
Format settings, GOP : M=1, N=10
Codec ID : V_MPEG4/ISO/AVC
Duration : 1 h 34 min
Bit rate mode : Variable
Bit rate : 26.8 Mb/s
Width : 1 920 pixels
Height : 1 080 pixels
Display aspect ratio : 16:9
Frame rate mode : Constant
Frame rate : 23.976 (24000/1001) FPS
Color space : YUV
Chroma subsampling : 4:2:0
Bit depth : 8 bits
Scan type : Progressive
Bits/(Pixel*Frame) : 0.540
Stream size : 17.8 GiB (91%)
Language : English
Default : Yes
Forced : No

Audio #1
ID : 2
Format : AC-3
Format/Info : Audio Coding 3
Codec ID : A_AC3
Duration : 1 h 34 min
Bit rate mode : Constant
Bit rate : 384 kb/s
Channel(s) : 6 channels
Channel positions : Front: L C R, Side: L R, LFE
Sampling rate : 48.0 kHz
Frame rate : 31.250 FPS (1536 SPF)
Bit depth : 16 bits
Compression mode : Lossy
Stream size : 260 MiB (1%)
Title : iTunes
Language : Russian
Service kind : Complete Main
Default : Yes
Forced : Yes

Audio #2
ID : 3
Format : DTS
Format/Info : Digital Theater Systems
Format profile : MA / Core
Codec ID : A_DTS
Duration : 1 h 34 min
Bit rate mode : Variable / Constant
Bit rate : 2 222 kb/s / 1 509 kb/s
Channel(s) : 6 channels
Channel positions : Front: L C R, Side: L R, LFE
Sampling rate : 48.0 kHz
Frame rate : 93.750 FPS (512 SPF)
Bit depth : 16 bits
Compression mode : Lossless / Lossy
Stream size : 1.47 GiB (8%)
Title : Original
Language : English
Default : No
Forced : No

Text #1
ID : 4
Format : UTF-8
Codec ID : S_TEXT/UTF8
Codec ID/Info : UTF-8 Plain Text
Duration : 1 h 33 min
Bit rate : 111 b/s
Count of elements : 1556
Stream size : 76.4 KiB (0%)
Title : Full
Language : Russian
Default : No
Forced : No

Text #2
ID : 5
Format : UTF-8
Codec ID : S_TEXT/UTF8
Codec ID/Info : UTF-8 Plain Text
Duration : 1 h 33 min
Bit rate : 71 b/s
Count of elements : 1726
Stream size : 49.5 KiB (0%)
Title : Full
Language : English
Default : No
Forced : No

Menu
00:00:00.000 : en:00:00:00.000
00:04:04.786 : en:00:04:04.786
00:08:26.297 : en:00:08:26.297
00:15:11.702 : en:00:15:11.702
00:21:00.634 : en:00:21:00.634
00:25:43.584 : en:00:25:43.584
00:30:50.265 : en:00:30:50.265
00:38:00.862 : en:00:38:00.862
00:44:37.341 : en:00:44:37.341
00:50:07.671 : en:00:50:07.671
00:56:21.295 : en:00:56:21.295
01:01:07.581 : en:01:01:07.581
01:07:02.560 : en:01:07:02.560
01:10:30.810 : en:01:10:30.810
01:14:35.137 : en:01:14:35.137
01:21:51.990 : en:01:21:51.990



Скрыт Profile PM
Показать сообщения:    
Ответить на тему

Текущее время: 14-Ноя 19:40

Часовой пояс: GMT + 3



Вы не можете начинать темы
Вы не можете отвечать на сообщения
Вы не можете редактировать свои сообщения
Вы не можете удалять свои сообщения
Вы не можете голосовать в опросах
Вы не можете прикреплять файлы к сообщениям
Вы не можете скачивать файлы
Рейтинг торрент трекеров - UpTracker.ru Анализ веб сайта Яндекс.Метрика
службы мониторинга серверов