Loading...
Error

Следующее поколение / Next Gen (Кевин Р. Адамс, Джо Ксандер) [2018 г., мультфильм, фантастика, боевик, приключения, комедия, WEB-DLRip-AVC] DUB

Ответить на тему
 
Автор Сообщение

Theseus

Стаж: 10 лет

Сообщений: 5002

Режим только чтение: НЕТ

post 21-Сен-2018 22:16

Quote

Следующее поколение / Next Gen

Год выхода: 2018
Страна: Китай, Канада, США
Жанр: мультфильм, фантастика, боевик, приключения, комедия
Продолжительность: 01:45:55
Перевод: Профессиональный (полное дублирование) | АРК-ТВ VSI International
Субтитры: Русские, английские
Режиссер: Кевин Р. Адамс, Джо Ксандер
В ролях: Джон Красински, Шарлин Йи, Джейсон Судейкис, Майкл Пенья, Дэвид Кросс, Констанс Ву, Киана Ледэ, Анна Акана, Иссак Райан Браун, Реба Бур
О фильме: Недалекое будущее. Девушке-подростку Мэй приходится расти в изоляции: папа ушёл из семьи, а мама больше интересуется новыми технологиями, чем собственной дочерью. Однажды она приводит Мэй на выставку последних достижений науки и техники, где та случайно помогает сбежать из лаборатории роботу последнего поколения. Наконец-то у подростка появляется настоящий друг.

Качество: WEB-DLRip-AVC
Формат: MKV
Видео кодек: x.264
Аудио кодек: AC3
Видео: AVC, 1024x430 (2,40:1), 24.000 fps, 1 600 Kbps
Аудио: AC-3, 48.0 KHz, 6 ch, 384 Kbps
Сэмпл
Рекламы нет !

Код:

Общее
Уникальный идентификатор                 : 252475636223709103000549630318785913356 (0xBDF109EF00C3142BBDD66CEB7464E20C)
Полное имя                               : Next.Gen.2018.WEB-DLRip.AVC.mkv
Формат                                   : Matroska
Версия формата                           : Version 4 / Version 2
Размер файла                             : 1,47 Гбайт
Продолжительность                        : 1 ч. 45 м.
Общий поток                              : 1987 Кбит/сек
Дата кодирования                         : UTC 2018-09-20 11:08:08
Программа кодирования                    : mkvmerge v8.3.0 ('Over the Horizon') 64bit
Библиотека кодирования                   : libebml v1.3.1 + libmatroska v1.4.2

Видео
Идентификатор                            : 1
Формат                                   : AVC
Формат/Информация                        : Advanced Video Codec
Профиль формата                          : High@L4.1
Настройки формата                        : CABAC / 10 Ref Frames
Параметр CABAC формата                   : Да
Параметр RefFrames формата               : 10 кадров
Идентификатор кодека                     : V_MPEG4/ISO/AVC
Продолжительность                        : 1 ч. 45 м.
Битрейт                                  : 1600 Кбит/сек
Ширина                                   : 1024 пикселя
Высота                                   : 430 пикселей
Соотношение сторон                       : 2,40:1
Соотношение сторон в оригинале           : 2,40:1
Режим частоты кадров                     : Постоянный
Частота кадров                           : 24,000 кадра/сек
Цветовое пространство                    : YUV
Субдискретизация насыщенности            : 4:2:0
Битовая глубина                          : 8 бит
Тип развёртки                            : Прогрессивная
Бит/(Пиксели*Кадры)                      : 0.151
Размер потока                            : 1,18 Гбайт (81%)
Библиотека кодирования                   : x264 core 155
Настройки программы                      : cabac=1 / ref=10 / deblock=1:-2:-2 / analyse=0x3:0x113 / me=umh / subme=11 / psy=1 / psy_rd=1.00:10.00 / mixed_ref=1 / me_range=24 / chroma_me=1 / trellis=2 / 8x8dct=1 / cqm=0 / deadzone=21,11 / fast_pskip=1 / chroma_qp_offset=-4 / threads=6 / lookahead_threads=1 / sliced_threads=0 / nr=0 / decimate=1 / interlaced=0 / bluray_compat=0 / constrained_intra=0 / bframes=11 / b_pyramid=2 / b_adapt=1 / b_bias=0 / direct=1 / weightb=1 / open_gop=0 / weightp=2 / keyint=240 / keyint_min=24 / scenecut=40 / intra_refresh=0 / rc_lookahead=40 / rc=2pass / mbtree=1 / bitrate=1600 / ratetol=1.0 / qcomp=0.60 / qpmin=0 / qpmax=69 / qpstep=4 / cplxblur=20.0 / qblur=0.5 / vbv_maxrate=62500 / vbv_bufsize=78125 / nal_hrd=none / filler=0 / ip_ratio=1.40 / aq=1:1.00
Default                                  : Да
Forced                                   : Нет
Цветовой диапазон                        : Limited
Основные цвета                           : BT.601 NTSC
Характеристики трансфера                 : BT.709
Коэффициенты матрицы                     : BT.601

Аудио
Идентификатор                            : 2
Формат                                   : AC-3
Формат/Информация                        : Audio Coding 3
Идентификатор кодека                     : A_AC3
Продолжительность                        : 1 ч. 45 м.
Вид битрейта                             : Постоянный
Битрейт                                  : 384 Кбит/сек
Каналы                                   : 6 каналов
Расположение каналов                     : Front: L C R, Side: L R, LFE
Частота                                  : 48,0 КГц
Частота кадров                           : 31,250 кадров/сек (1536 SPF)
Битовая глубина                          : 16 бит
Метод сжатия                             : С потерями
Размер потока                            : 291 Мбайт (19%)
Заголовок                                : DUB | АРК-ТВ VSI International
Язык                                     : Russian
ServiceKind/String                       : Complete Main
Default                                  : Да
Forced                                   : Нет

Текст #1
Идентификатор                            : 3
Формат                                   : UTF-8
Идентификатор кодека                     : S_TEXT/UTF8
Идентификатор кодека/Информация          : UTF-8 Plain Text
Продолжительность                        : 1 ч. 37 м.
Битрейт                                  : 64 бит/сек
ElementCount                             : 1011
Размер потока                            : 46,1 Кбайт (0%)
Язык                                     : Russian
Default                                  : Нет
Forced                                   : Нет

Текст #2
Идентификатор                            : 4
Формат                                   : UTF-8
Идентификатор кодека                     : S_TEXT/UTF8
Идентификатор кодека/Информация          : UTF-8 Plain Text
Продолжительность                        : 1 ч. 39 м.
Битрейт                                  : 65 бит/сек
ElementCount                             : 1540
Размер потока                            : 47,9 Кбайт (0%)
Заголовок                                : SDH
Язык                                     : English
Default                                  : Нет
Forced                                   : Нет



Скрыт Profile PM
Показать сообщения:    
Ответить на тему

Текущее время: 21-Сен 12:31

Часовой пояс: GMT + 3



Вы не можете начинать темы
Вы не можете отвечать на сообщения
Вы не можете редактировать свои сообщения
Вы не можете удалять свои сообщения
Вы не можете голосовать в опросах
Вы не можете прикреплять файлы к сообщениям
Вы не можете скачивать файлы
Рейтинг торрент трекеров - UpTracker.ru Анализ веб сайта Яндекс.Метрика
службы мониторинга серверов