Loading...
Error

(Heavy Metal) Motorhead - Ace Of Spades (LLMCD-3013) - 1980, WAVPack (image + .cue)

Ответить на тему
 
Автор Сообщение

Overkill11

Стаж: 8 лет 10 месяцев

Сообщений: 2

Откуда: Оттуда

Украина

Режим только чтение: НЕТ

post 24-Окт-2010 10:16

Quote

Motorhead - Ace Of Spades (LLMCD-3013)

Страна: U.K.
Жанр: Heavy Metal
Год выпуска: 1980
Формат: WAVPack (image + .cue)
Продолжительность: 0:36:39
1. Ace of Spades 2:48
2. Love Me Like a Reptile 3:24
3. Shoot You in the Back 2:40
4. Live to Win 3:38
5. Fast and Loose 3:22
6. (We Are) The Road Crew 3:12
7. Fire Fire 2:42
8. Jailbait 3:33
9. Dance 2:38
10. Bite the Bullet 1:38
11. The Chase Is Better Than the Catch 4:18
12. The Hammer 2:46
Доп. информация:
Exact Audio Copy V0.99 prebeta 4 from 23. January 2008

EAC extraction logfile from 27. June 2008, 15:25

Motorhead / Ace Of Spades

Used drive : PLEXTOR DVDR PX-716A Adapter: 3 ID: 0

Read mode : Secure
Utilize accurate stream : Yes
Defeat audio cache : Yes
Make use of C2 pointers : No

Read offset correction : 30
Overread into Lead-In and Lead-Out : Yes
Fill up missing offset samples with silence : Yes
Delete leading and trailing silent blocks : No
Null samples used in CRC calculations : Yes
Used interface : Native Win32 interface for Win NT & 2000

Used output format : User Defined Encoder
Selected bitrate : 32 kBit/s
Quality : High
Add ID3 tag : No
Command line compressor : C:\Program Files\FLAC\flac.exe
Additional command line options : -8 -V -T "ARTIST=%a" -T "TITLE=%t" -T "ALBUM=%g" -T "DATE=%y" -T "TRACKNUMBER=%n" -T "GENRE=%m" -T "COMMENT=%e" %s -o %d

TOC of the extracted CD

Track | Start | Length | Start sector | End sector
---------------------------------------------------------
1 | 0:00.65 | 2:48.27 | 65 | 12691
2 | 2:49.17 | 3:23.63 | 12692 | 27979
3 | 6:13.05 | 2:39.57 | 27980 | 39961
4 | 8:52.62 | 3:37.38 | 39962 | 56274
5 | 12:30.25 | 3:22.30 | 56275 | 71454
6 | 15:52.55 | 3:12.12 | 71455 | 85866
7 | 19:04.67 | 2:42.30 | 85867 | 98046
8 | 21:47.22 | 3:33.18 | 98047 | 114039
9 | 25:20.40 | 2:37.47 | 114040 | 125861
10 | 27:58.12 | 1:38.00 | 125862 | 133211
11 | 29:36.12 | 4:17.60 | 133212 | 152546
12 | 33:53.72 | 2:46.30 | 152547 | 165026

Range status and errors

Selected range

Filename D:\[FLAC] Motorhead - Ace Of Spades (LLMCD 3013) [UK]\Motorhead - Ace Of Spades.wav

Peak level 100.0 %
Range quality 99.9 %
Copy CRC C9488E1E
Copy OK

No errors occurred

AccurateRip summary
Track 1 accurately ripped (confidence 5) [0DEE05ED]
Track 2 accurately ripped (confidence 5) [6C1909DD]
Track 3 accurately ripped (confidence 4) [0846E30F]
Track 4 accurately ripped (confidence 4) [7FC0E962]
Track 5 accurately ripped (confidence 4) [6CE371E5]
Track 6 accurately ripped (confidence 5) [5901AA66]
Track 7 accurately ripped (confidence 5) [27854742]
Track 8 accurately ripped (confidence 4) [B21331B0]
Track 9 accurately ripped (confidence 4) [D17F48F9]
Track 10 accurately ripped (confidence 4) [72AF8D92]
Track 11 accurately ripped (confidence 4) [06C71E06]
Track 12 accurately ripped (confidence 5) [E86769A8]
All tracks accurately ripped

End of status report
Вне форума Profile PM
Показать сообщения:    
Ответить на тему

Текущее время: 15-Сен 11:50

Часовой пояс: GMT + 3



Вы не можете начинать темы
Вы не можете отвечать на сообщения
Вы не можете редактировать свои сообщения
Вы не можете удалять свои сообщения
Вы не можете голосовать в опросах
Вы не можете прикреплять файлы к сообщениям
Вы не можете скачивать файлы
Рейтинг торрент трекеров - UpTracker.ru Анализ веб сайта Яндекс.Метрика
службы мониторинга серверов