Loading...
Error

(Heavy Metal) Motorhead - 1916 - 1991, FLAC (tracks+.cue) lossless

Ответить на тему
 
Автор Сообщение

Mafiozi

Стаж: 8 лет 11 месяцев

Сообщений: 5

Афганистан

Режим только чтение: НЕТ

post 26-Окт-2010 17:48

Quote

Motorhead - 1916

Жанр: Heavy Metal
Страна-производитель диска: UK
Год издания диска: 1991
Издатель (лейбл): WTG
Номер по каталогу: NK 46858
Аудио кодек: FLAC (*.flac)
Тип рипа: tracks+.cue
Битрейт аудио: lossless
Продолжительность: 39:28

Треклист:


1. One to Sing the Blues
2. I'm So Bad (Baby I Don't Care)
3. No Voices in the Sky
4. Going to Brazil
5. Nightmare/The Dreamtime
6. Love Me Forever
7. Angel City
8. Make My Day
9. R.A.M.O.N.E.S.
10. Shut You Down
11. 1916

Код:

Exact Audio Copy V0.99 prebeta 4 from 23. January 2008

EAC extraction logfile from 22. May 2009, 16:36

Motцrhead / 1916

Used drive  : HL-DT-STDVD-RAM GH10L   Adapter: 0  ID: 1

Read mode               : Secure
Utilize accurate stream : Yes
Defeat audio cache      : Yes
Make use of C2 pointers : No

Read offset correction                      : 667
Overread into Lead-In and Lead-Out          : No
Fill up missing offset samples with silence : Yes
Delete leading and trailing silent blocks   : No
Null samples used in CRC calculations       : Yes
Used interface                              : Native Win32 interface for Win NT & 2000
Gap handling                                : Appended to previous track

Used output format              : User Defined Encoder
Selected bitrate                : 1024 kBit/s
Quality                         : High
Add ID3 tag                     : No
Command line compressor         : C:\Program Files\Exact Audio Copy\FLAC\flac.exe
Additional command line options : -8 -e -V -T "Artist=%a" -T "Date=%y" -T "Album=%g" -T "DiscNumber=1/1" -T "TrackNumber=%n" -T "Title=%t" -T "Genre=%m" -T "AlbumArtist=%a" -T "Composer=" -T "Comment=" -T "Publisher=Pseudonymous / The Soviet Alliance / Soviet.ca" %s --sector-align

TOC of the extracted CD

     Track |   Start  |  Length  | Start sector | End sector
    ---------------------------------------------------------
        1  |  0:00.00 |  3:07.35 |         0    |    14059
        2  |  3:07.35 |  3:13.52 |     14060    |    28586
        3  |  6:21.12 |  4:12.35 |     28587    |    47521
        4  | 10:33.47 |  2:30.38 |     47522    |    58809
        5  | 13:04.10 |  4:40.17 |     58810    |    79826
        6  | 17:44.27 |  5:27.45 |     79827    |   104396
        7  | 23:11.72 |  3:57.13 |    104397    |   122184
        8  | 27:09.10 |  4:24.62 |    122185    |   142046
        9  | 31:33.72 |  1:26.03 |    142047    |   148499
       10  | 33:00.00 |  2:41.57 |    148500    |   160631
       11  | 35:41.57 |  3:44.68 |    160632    |   177499

Track  1

     Filename X:\Audio\Queue\Motцrhead\1991 - 1916\01 - The One to Sing The Blues.wav

     Pre-gap length  0:00:02.00

     Peak level 97.2 %
     Track quality 100.0 %
     Test CRC D6F8A0DE
     Copy CRC D6F8A0DE
     Accurately ripped (confidence 3)  [83CD5C26]
     Copy OK

Track  2

     Filename X:\Audio\Queue\Motцrhead\1991 - 1916\02 - I'm So Bad (Baby I Don't Care).wav

     Peak level 97.2 %
     Track quality 100.0 %
     Test CRC 99DF4D3C
     Copy CRC 99DF4D3C
     Accurately ripped (confidence 3)  [4395ADD6]
     Copy OK

Track  3

     Filename X:\Audio\Queue\Motцrhead\1991 - 1916\03 - No Voices in The Sky.wav

     Peak level 89.6 %
     Track quality 100.0 %
     Test CRC 436D46AA
     Copy CRC 436D46AA
     Accurately ripped (confidence 3)  [3AE09725]
     Copy OK

Track  4

     Filename X:\Audio\Queue\Motцrhead\1991 - 1916\04 - Going to Brazil.wav

     Peak level 97.2 %
     Track quality 100.0 %
     Test CRC 12610D86
     Copy CRC 12610D86
     Accurately ripped (confidence 3)  [1D55BF74]
     Copy OK

Track  5

     Filename X:\Audio\Queue\Motцrhead\1991 - 1916\05 - Nightmare; The Dreamtime.wav

     Pre-gap length  0:00:01.53

     Peak level 97.2 %
     Track quality 99.9 %
     Test CRC 1656AE08
     Copy CRC 1656AE08
     Accurately ripped (confidence 3)  [D7064433]
     Copy OK

Track  6

     Filename X:\Audio\Queue\Motцrhead\1991 - 1916\06 - Love Me Forever.wav

     Peak level 97.2 %
     Track quality 100.0 %
     Test CRC 220FE666
     Copy CRC 220FE666
     Accurately ripped (confidence 3)  [FD890056]
     Copy OK

Track  7

     Filename X:\Audio\Queue\Motцrhead\1991 - 1916\07 - Angel City.wav

     Peak level 97.2 %
     Track quality 100.0 %
     Test CRC 8CDA8EE2
     Copy CRC 8CDA8EE2
     Accurately ripped (confidence 3)  [07C82499]
     Copy OK

Track  8

     Filename X:\Audio\Queue\Motцrhead\1991 - 1916\08 - Make My Day.wav

     Peak level 97.2 %
     Track quality 100.0 %
     Test CRC 9712F0A4
     Copy CRC 9712F0A4
     Accurately ripped (confidence 3)  [E8EBCF89]
     Copy OK

Track  9

     Filename X:\Audio\Queue\Motцrhead\1991 - 1916\09 - Ramones.wav

     Pre-gap length  0:00:00.67

     Peak level 93.5 %
     Track quality 100.0 %
     Test CRC FD8F13B9
     Copy CRC FD8F13B9
     Accurately ripped (confidence 3)  [C10DE1A9]
     Copy OK

Track 10

     Filename X:\Audio\Queue\Motцrhead\1991 - 1916\10 - Shut You Down.wav

     Pre-gap length  0:00:00.13

     Peak level 97.2 %
     Track quality 100.0 %
     Test CRC 7B9104B9
     Copy CRC 7B9104B9
     Accurately ripped (confidence 3)  [24215CBB]
     Copy OK

Track 11

     Filename X:\Audio\Queue\Motцrhead\1991 - 1916\11 - 1916.wav

     Pre-gap length  0:00:01.20

     Peak level 86.5 %
     Track quality 100.0 %
     Test CRC EA7945B8
     Copy CRC EA7945B8
     Accurately ripped (confidence 3)  [D3373287]
     Copy OK

All tracks accurately ripped

No errors occurred

End of status report

Код:

REM GENRE "Heavy Metal"
REM DATE 1991
REM DISCID A2093E0B
REM COMMENT "ExactAudioCopy v0.99pb4"
PERFORMER "Motцrhead"
TITLE "1916"
FILE "01 - The One to Sing The Blues.wav" WAVE
  TRACK 01 AUDIO
    TITLE "The One to Sing The Blues"
    PERFORMER "Motцrhead"
    INDEX 01 00:00:00
FILE "02 - I'm So Bad (Baby I Don't Care).wav" WAVE
  TRACK 02 AUDIO
    TITLE "I'm So Bad (Baby I Don't Care)"
    PERFORMER "Motцrhead"
    INDEX 01 00:00:00
FILE "03 - No Voices in The Sky.wav" WAVE
  TRACK 03 AUDIO
    TITLE "No Voices in The Sky"
    PERFORMER "Motцrhead"
    INDEX 01 00:00:00
FILE "04 - Going to Brazil.wav" WAVE
  TRACK 04 AUDIO
    TITLE "Going to Brazil"
    PERFORMER "Motцrhead"
    INDEX 01 00:00:00
  TRACK 05 AUDIO
    TITLE "Nightmare / The Dreamtime"
    PERFORMER "Motцrhead"
    INDEX 00 02:28:60
FILE "05 - Nightmare; The Dreamtime.wav" WAVE
    INDEX 01 00:00:00
FILE "06 - Love Me Forever.wav" WAVE
  TRACK 06 AUDIO
    TITLE "Love Me Forever"
    PERFORMER "Motцrhead"
    INDEX 01 00:00:00
FILE "07 - Angel City.wav" WAVE
  TRACK 07 AUDIO
    TITLE "Angel City"
    PERFORMER "Motцrhead"
    INDEX 01 00:00:00
FILE "08 - Make My Day.wav" WAVE
  TRACK 08 AUDIO
    TITLE "Make My Day"
    PERFORMER "Motцrhead"
    INDEX 01 00:00:00
  TRACK 09 AUDIO
    TITLE "Ramones"
    PERFORMER "Motцrhead"
    INDEX 00 04:23:70
FILE "09 - Ramones.wav" WAVE
    INDEX 01 00:00:00
  TRACK 10 AUDIO
    TITLE "Shut You Down"
    PERFORMER "Motцrhead"
    INDEX 00 01:25:65
FILE "10 - Shut You Down.wav" WAVE
    INDEX 01 00:00:00
  TRACK 11 AUDIO
    TITLE "1916"
    PERFORMER "Motцrhead"
    INDEX 00 02:40:37
FILE "11 - 1916.wav" WAVE
    INDEX 01 00:00:00
Вне форума Profile PM
Показать сообщения:    
Ответить на тему

Текущее время: 21-Сен 02:38

Часовой пояс: GMT + 3



Вы не можете начинать темы
Вы не можете отвечать на сообщения
Вы не можете редактировать свои сообщения
Вы не можете удалять свои сообщения
Вы не можете голосовать в опросах
Вы не можете прикреплять файлы к сообщениям
Вы не можете скачивать файлы
Рейтинг торрент трекеров - UpTracker.ru Анализ веб сайта Яндекс.Метрика
службы мониторинга серверов