Loading...
Error

(Punk-Rock) Пурген - Бог рабов - 2010, APE (image+.cue), lossless

Ответить на тему
 
Автор Сообщение

Mafiozi

Стаж: 9 лет 1 месяц

Сообщений: 5

Афганистан

Режим только чтение: НЕТ

post 26-Окт-2010 17:53

Quote

Пурген - Бог рабов

Жанр: Punk-Rock
Происхождение исполнителя: Россия
Год издания данного носителя: 2010
Тип релиза: image+.cue
Аудио кодек: APE
Битрейт аудио: lossless
Продолжительность: 51:31

Треклист:


01 - Intro
02 - Мясо для рабов
03 - Ты в прошлой жизни был коровой
04 - Как прекрасен этот мир
05 - Американский глобализм
06 - Русiя
07 - Зло
08 - Боги спусились с небес
09 - Иерархия богов
10 - Мозг в стразах
11 - Злые пастухи
12 - Активная жизнь
13 - Трансформент
14 - Трагедия на Авиамоторной (bonus)
15 - Все люди Чикатилы (bonus)
16 - Панк Эйфория (bonus)

Код:

Exact Audio Copy V0.99 prebeta 4 from 23. January 2008

Отчёт EAC об извлечении, выполненном 6. сентября 2010, 13:18

Пурген / Бог рабов

Дисковод: TSSTcorpCDDVDW SH-S203D   Adapter: 0  ID: 1

Режим чтения                 : Достоверность
Использование точного потока : Да
Отключение кэша аудио        : Да
Использование указателей C2  : Нет

Коррекция смещения при чтении                     : 6
Способность читать области Lead-in и Lead-out     : Нет
Заполнение пропущенных сэмплов тишиной            : Да
Удаление блоков с тишиной в начале и конце        : Нет
При вычислениях CRC использовались нулевые сэмплы : Да
Интерфейс                                         : Встроенный Win32-интерфейс для Win NT/2000

Выходной формат : Внутренние WAV-операции
Формат сэмплов  : 44.100 Гц; 16 бит; стерео

TOC извлечённого CD

     Трек |   Старт  | Длительность | Начальный сектор | Конечный сектор
    ---------------------------------------------------------------------
       1  |  0:00.00 |    1:07.19   |           0      |       5043     
       2  |  1:07.19 |    3:13.07   |        5044      |      19525     
       3  |  4:20.26 |    3:50.34   |       19526      |      36809     
       4  |  8:10.60 |    3:10.04   |       36810      |      51063     
       5  | 11:20.64 |    5:06.48   |       51064      |      74061     
       6  | 16:27.37 |    4:32.43   |       74062      |      94504     
       7  | 21:00.05 |    0:34.11   |       94505      |      97065     
       8  | 21:34.16 |    3:56.40   |       97066      |     114805     
       9  | 25:30.56 |    2:47.72   |      114806      |     127402     
      10  | 28:18.53 |    2:12.61   |      127403      |     137363     
      11  | 30:31.39 |    2:54.69   |      137364      |     150482     
      12  | 33:26.33 |    2:44.51   |      150483      |     162833     
      13  | 36:11.09 |    3:10.32   |      162834      |     177115     
      14  | 39:21.41 |    5:01.30   |      177116      |     199720     
      15  | 44:22.71 |    4:03.01   |      199721      |     217946     
      16  | 48:25.72 |    3:13.10   |      217947      |     232431     

Характеристики диапазона извлечения и сообщения об ошибках

Выбранный диапазон

     Имя файла C:\Пурген - Бог рабов.wav

     Пиковый уровень 100.0 %
     Качество диапазона 100.0 %
     CRC копии 4C749460
     Копирование... OK

Ошибок не произошло

 
AccurateRip: сводка
 
Трек  1  нет в базе данных
Трек  2  нет в базе данных
Трек  3  нет в базе данных
Трек  4  нет в базе данных
Трек  5  нет в базе данных
Трек  6  нет в базе данных
Трек  7  нет в базе данных
Трек  8  нет в базе данных
Трек  9  нет в базе данных
Трек 10  нет в базе данных
Трек 11  нет в базе данных
Трек 12  нет в базе данных
Трек 13  нет в базе данных
Трек 14  нет в базе данных
Трек 15  нет в базе данных
Трек 16  нет в базе данных
 
Ни одного трека нет в базе AccurateRip

Конец отчёта

Код:

REM GENRE "Punk Rock"
REM DATE 2010
REM DISCID DC0C1B10
REM COMMENT "ExactAudioCopy v0.99pb4"
PERFORMER "Пурген"
TITLE "Бог рабов"
FILE "Пурген - Бог рабов.ape" WAVE
  TRACK 01 AUDIO
    TITLE " Intro"
    PERFORMER "Пурген"
    INDEX 01 00:00:00
  TRACK 02 AUDIO
    TITLE "Мясо для рабов"
    PERFORMER "Пурген"
    INDEX 01 01:07:19
  TRACK 03 AUDIO
    TITLE "Ты в прошлой жизни был коровой"
    PERFORMER "Пурген"
    INDEX 01 04:20:26
  TRACK 04 AUDIO
    TITLE "Как прекрасен этот мир"
    PERFORMER "Пурген"
    INDEX 01 08:10:60
  TRACK 05 AUDIO
    TITLE "Американский глобализм"
    PERFORMER "Пурген"
    INDEX 01 11:20:64
  TRACK 06 AUDIO
    TITLE "Русiя"
    PERFORMER "Пурген"
    INDEX 01 16:27:37
  TRACK 07 AUDIO
    TITLE "Зло"
    PERFORMER "Пурген"
    INDEX 01 21:00:05
  TRACK 08 AUDIO
    TITLE "Боги спустились с небес"
    PERFORMER "Пурген"
    INDEX 01 21:34:16
  TRACK 09 AUDIO
    TITLE "Иерархия богов"
    PERFORMER "Пурген"
    INDEX 01 25:30:56
  TRACK 10 AUDIO
    TITLE "Мозг в стразах"
    PERFORMER "Пурген"
    INDEX 01 28:18:53
  TRACK 11 AUDIO
    TITLE "Злые пастухи"
    PERFORMER "Пурген"
    INDEX 01 30:31:39
  TRACK 12 AUDIO
    TITLE "Активная жизнь"
    PERFORMER "Пурген"
    INDEX 01 33:26:33
  TRACK 13 AUDIO
    TITLE "Трансформент"
    PERFORMER "Пурген"
    INDEX 01 36:11:09
  TRACK 14 AUDIO
    TITLE "Трагедия на Авиамоторной"
    PERFORMER "Пурген"
    INDEX 01 39:21:41
  TRACK 15 AUDIO
    TITLE "Все люди - Чикатилы"
    PERFORMER "Пурген"
    INDEX 01 44:22:71
  TRACK 16 AUDIO
    TITLE "Панк эйфория"
    PERFORMER "Пурген"
    INDEX 01 48:25:72
Вне форума Profile PM
Показать сообщения:    
Ответить на тему

Текущее время: 17-Ноя 07:48

Часовой пояс: GMT + 3



Вы не можете начинать темы
Вы не можете отвечать на сообщения
Вы не можете редактировать свои сообщения
Вы не можете удалять свои сообщения
Вы не можете голосовать в опросах
Вы не можете прикреплять файлы к сообщениям
Вы не можете скачивать файлы
Рейтинг торрент трекеров - UpTracker.ru Анализ веб сайта Яндекс.Метрика
службы мониторинга серверов