Loading...
Error

Чужие против ниндзя / Alien vs. Ninja (Сейджи Чиба / Seiji Chiba) [ 2010, фантастика, фэнтези, боевик, DVDRip]

Ответить на тему
 
Автор Сообщение

Alexpetrov

Стаж: 9 лет

Сообщений: 1055

Россия

Режим только чтение: НЕТ

post 04-Мар-2011 21:00

Quote

Чужие против ниндзя / Alien vs. Ninja

Год выпуска: 2010
Страна: Япония
Жанр: фантастика, фэнтези, боевик, комедия
Продолжительность: 01:50:35
Перевод: Профессиональный (многоголосый, закадровый)
Субтитры: нет
Режиссер: Сейджи Чиба / Seiji Chiba
В ролях:
Мика Хиджии, Бэн Хиура, Сууджи Кашивабара и др.
Описание:
Воины-ниндзя становятся свидетелями того, как огненный шар падает с неба недалеко от их деревни. Вскоре они находят пришельцев, которые нападают на них. Выжившие клянутся отомстить, но позже выясняется, что их оружие бесполезно…

Качество: DVDRip
Формат: AVI
Кодек видео: XviD
Кодек аудио: АС3
Видео: 720x400 (1.80:1), 25 fps, XviD MPEG-4 ~1957 kbps avg, 0.27 bit/pixel
Аудио: 48 kHz, AC3 Dolby Digital, 3/2 (L,C,R,l,r) + LFE ch, ~448 kbps

D:\фильмы\Chuzhie.protiv.nindzja.2010.P.DVDRip.ELEKTRI4KA.avi
General
Complete name : D:\фильмы\Chuzhie.protiv.nindzja.2010.P.DVDRip.ELEKTRI4KA.avi
Format : AVI
Format/Info : Audio Video Interleave
File size : 1.37 GiB
Duration : 1h 21mn
Overall bit rate : 2 415 Kbps
Writing application : VirtualDubMod 1.5.4.1 (build 2178/release)
Writing library : VirtualDubMod build 2178/release
Video #0
ID : 0
Format : MPEG-4 Visual
Format profile : Advanced Simple@L5
Format settings, BVOP : Yes
Format settings, QPel : No
Format settings, GMC : No warppoints
Format settings, Matrix : Custom
Codec ID : XVID
Codec ID/Hint : XviD
Duration : 1h 21mn
Bit rate : 1 957 Kbps
Width : 720 pixels
Height : 400 pixels
Display aspect ratio : 16:9
Frame rate : 25.000 fps
Color space : YUV
Chroma subsampling : 4:2:0
Bit depth : 8 bits
Scan type : Progressive
Compression mode : Lossy
Bits/(Pixel*Frame) : 0.272
Stream size : 1.11 GiB (81%)
Writing library : XviD 58
Audio #1
ID : 1
Format : AC-3
Format/Info : Audio Coding 3
Mode extension : CM (complete main)
Codec ID : 2000
Duration : 1h 21mn
Bit rate mode : Constant
Bit rate : 448 Kbps
Channel(s) : 6 channels
Channel positions : Front: L C R, Side: L R, LFE
Sampling rate : 48.0 KHz
Bit depth : 16 bits
Compression mode : Lossy
Stream size : 260 MiB (19%)
Alignment : Split accross interleaves
Interleave, duration : 40 ms (1.00 video frame)
Interleave, preload duration : 500 ms

Данную раздачу можно скачивать при отсутствии сидирующих на трекере.
Вне форума Profile PM

Constanto73

Стаж: 8 лет 8 месяцев

Сообщений: 3

Откуда: 73reg

СССР

Режим только чтение: НЕТ

post 08-Мар-2011 14:17 (спустя 3 дня)

Quote

Бедные чужие, уж против кого только их не выставляли, вот и до "НИНДЗЕЙ" докатились...
Следующие наверно будут против зомби каких нить....
Вне форума Profile PM
Показать сообщения:    
Ответить на тему

Текущее время: 19-Окт 12:12

Часовой пояс: GMT + 3



Вы не можете начинать темы
Вы не можете отвечать на сообщения
Вы не можете редактировать свои сообщения
Вы не можете удалять свои сообщения
Вы не можете голосовать в опросах
Вы не можете прикреплять файлы к сообщениям
Вы не можете скачивать файлы
Рейтинг торрент трекеров - UpTracker.ru Анализ веб сайта Яндекс.Метрика
службы мониторинга серверов