Loading...
Error

11-11-11 / 11-11-11 (Даррен Линн Боусман) [2011 г., ужасы, триллер, DVD5]

Ответить на тему
 
Автор Сообщение

Theseus

Стаж: 9 лет

Сообщений: 5003

Режим только чтение: НЕТ

post 21-Ноя-2011 00:48

Quote


11-11-11 / 11-11-11
«Ничего изменить нельзя... теперь всем точно ... !»

Год выпуска: 2011
Страна: США, Испания / Canonigo Films
Жанр: ужасы, триллер
Продолжительность: 01:32:56
Перевод: Профессиональный (полное дублирование)
Режиссер: Даррен Линн Боусман
В ролях: Тимоти Гиббс, Майкл Лэндис, Дэнис Рафтер, Венди Гленн, Луис Солер, Брендан Прайс, Лоло Херреро, Монтсеррат Альковерро, Кельвин Гилмор, Саломе Хименес
Описание: В центре событий известный писатель по имени Джозеф Крон, потерявший в результате несчастного случая жену и ребенка. Чтобы оправиться от трагедии, он едет в Европу, в Испанию, где живет его брат Самюэль и находящийся при смерти отец Ричард. Но судьба продолжает преследовать Джозефа, и все события оказываются мистическим образом связаны с числом 11. Джозеф становится одержим этим числом. Проведя расследование, он выясняет, что 11.11.11 произойдет некое событие, информация о котором зашифрована в молитвенных книгах разных религий мира. Вскоре он понимает, что 11.11.11 — это ПРЕДУПРЕЖДЕНИЕ.

Качество: DVD5
Формат: DVD Video
Видео кодек: MPEG2
Аудио кодек: AC3
Видео: PAL 16:9 (720x576(0.633)) MPEG Video, 25,000 кадр/сек, 5062 Кбит/сек
Аудио: 48 kHz, AC3 Dolby Digital, 3/2 (L,C,R,l,r) + LFE ch, 448.00 kbps |Русский профессиональный(дублированный)|
Аудио: 48 kHz, AC3 Dolby Digital, 3/2 (L,C,R,l,r) + LFE ch, 448.00 kbps |Английский (оригинал)|
Субтитры: Нет
Общее
Полное имя : F:\11.11.11.2011.D.DVD5\VIDEO_TS\VTS_01_1.VOB
Формат : MPEG-PS
Размер файла : 1000 Мбайт
Продолжительность : 22 м.
Общий поток : 6079 Кбит/сек
Видео
Идентификатор : 224 (0xE0)
Формат : MPEG Video
Версия формата : Version 2
Профиль формата : Main@Main
Параметр BVOP формата : Да
Параметр матрицы формата : Выборочная
Параметр GOP формата : M=3, N=15
Продолжительность : 22 м.
Вид битрейта : Переменный
Битрейт : 5062 Кбит/сек
Максимальный битрейт : 5800 Кбит/сек
Ширина : 720 пикселей
Высота : 576 пикселей
Соотношение сторон : 16:9
Частота кадров : 25,000 кадров/сек
Стандарт вещания : PAL
Цветовое пространство : YUV
Субдискретизация насыщенности : 4:2:0
Битовая глубина : 8 бит
Тип развёртки : Чересстрочная
Порядок развёртки : Верхнее поле первое
Метод сжатия : С потерями
Бит/(Пиксели*Кадры) : 0.488
Размер потока : 833 Мбайт (83%)
Аудио #1
Идентификатор : 189 (0xBD)-128 (0x80)
Формат : AC-3
Формат/Информация : Audio Coding 3
Расширение режима : CM (complete main)
Режим смешивания : DVD-Video
Продолжительность : 22 м.
Вид битрейта : Постоянный
Битрейт : 448 Кбит/сек
Каналы : 6 каналов
Расположение каналов : Front: L C R, Side: L R, LFE
Частота : 48,0 КГц
Битовая глубина : 16 бит
Метод сжатия : С потерями
Задержка видео : -80 мс.
Размер потока : 73,7 Мбайт (7%)
Аудио #2
Идентификатор : 189 (0xBD)-129 (0x81)
Формат : AC-3
Формат/Информация : Audio Coding 3
Расширение режима : CM (complete main)
Режим смешивания : DVD-Video
Продолжительность : 22 м.
Вид битрейта : Постоянный
Битрейт : 448 Кбит/сек
Каналы : 6 каналов
Расположение каналов : Front: L C R, Side: L R, LFE
Частота : 48,0 КГц
Битовая глубина : 16 бит
Метод сжатия : С потерями
Задержка видео : -80 мс.
Размер потока : 73,7 Мбайт (7%)



Скрыт Profile PM

multi75

Стаж: 7 лет 9 месяцев

Сообщений: 1

США

Режим только чтение: НЕТ

post 04-Дек-2011 11:38 (спустя 13 дней)

Quote

5 оценка
Вне форума Profile PM
Показать сообщения:    
Ответить на тему

Текущее время: 15-Сен 11:49

Часовой пояс: GMT + 3



Вы не можете начинать темы
Вы не можете отвечать на сообщения
Вы не можете редактировать свои сообщения
Вы не можете удалять свои сообщения
Вы не можете голосовать в опросах
Вы не можете прикреплять файлы к сообщениям
Вы не можете скачивать файлы
Рейтинг торрент трекеров - UpTracker.ru Анализ веб сайта Яндекс.Метрика
службы мониторинга серверов