Loading...
Error

Кориолан / Coriolanus (Рэйф Файнс) [2011 г., триллер, драма, DVD9] |Лицензия|

Ответить на тему
 
Автор Сообщение

Theseus

Стаж: 9 лет

Сообщений: 5003

Режим только чтение: НЕТ

post 21-Фев-2012 17:26

Quote


Кориолан / Coriolanus

Год выпуска: 2011
Страна: Великобритания
Жанр: триллер, драма
Продолжительность: 01:58:04
Перевод: Профессиональный (полное дублирование)
Режиссер: Рэйф Файнс
В ролях: Джессика Честейн, Рэйф Файнс, Джерард Батлер, Брайан Кокс, Ванесса Редгрейв, Джеймс Несбитт, Ашраф Бархом, Лубна Азабаль, Драган Мичанович, Никки Амука-Бёрд
Описание: Сюжет картины основан на легенде о полководце Гнее Марцие Кориолане, жившем в Риме в пятом веке до нашей эры. Действие картины из Древнего Рима перенесено в наши дни, и вместо мечей главные герои «Кориолана» сжимают в руках автоматы.

Качество: DVD9
Формат: DVDVideo
Видео кодек: Mpeg 2
Аудио кодек: AC3
Видео: PAL 16:9 (720x576(0.607)) MPEG Video, 25,000 кадр/сек, 6293 Кбит/сек
Аудио: Russian (Dolby AC3, 6 ch) 384 Кбит/сек, 48,0 КГц
Субтитры: Нет
Меню: Есть
Бонусы: Нет

Title:
Size: 5.45 Gb ( 5 718 350 KBytes ) - DVD-9
Enabled regions: 1, 2, 3, 4, 5, 6, 7, 8
VTS_01 :
Play Length: 00:00:10
Video: PAL 16:9 (720x576) VBR, Auto Pan&Scan
Audio:
English (Dolby AC3, 2 ch)
VTS_02 :
Play Length: 01:58:04
Video: PAL 16:9 (720x576) VBR, Auto Pan&Scan
Audio:
Russian (Dolby AC3, 6 ch)
VTS_03 :
Play Length: 00:00:20
Video: PAL 4:3 (720x576) VBR
Audio:
English (Dolby AC3, 2 ch)
VTS_04 :
Play Length: 00:00:08
Video: PAL 4:3 (720x576) VBR
Menu Video:
PAL 4:3 (720x576) VBR
Auto Pan&Scan, Auto Letterboxed
Menu Russian Language Unit :
Root Menu
Chapter (PTT) Menu
Общее
Полное имя : D:\Coriolanus\VIDEO_TS\VTS_02_1.VOB
Формат : MPEG-PS
Размер файла : 1024 Мбайт
Продолжительность : 21 м.
Режим общего битрейта : Переменный
Общий поток : 6813 Кбит/сек

Видео
Идентификатор : 224 (0xE0)
Формат : MPEG Video
Версия формата : Version 2
Профиль формата : Main@Main
Параметр BVOP формата : Да
Параметр матрицы формата : Выборочная
Продолжительность : 21 м.
Вид битрейта : Переменный
Битрейт : 6293 Кбит/сек
Максимальный битрейт : 8000 Кбит/сек
Ширина : 720 пикселей
Высота : 576 пикселей
Соотношение сторон : 16:9
Частота кадров : 25,000 кадров/сек
Стандарт вещания : PAL
Цветовое пространство : YUV
Субдискретизация насыщенности : 4:2:0
Битовая глубина : 8 бит
Тип развёртки : Чересстрочная
Порядок развёртки : Верхнее поле первое
Метод сжатия : С потерями
Бит/(Пиксели*Кадры) : 0.607
Размер потока : 946 Мбайт (92%)

Аудио
Идентификатор : 189 (0xBD)-128 (0x80)
Формат : AC-3
Формат/Информация : Audio Coding 3
Расширение режима : CM (complete main)
Режим смешивания : DVD-Video
Продолжительность : 21 м.
Вид битрейта : Постоянный
Битрейт : 384 Кбит/сек
Каналы : 6 каналов
Расположение каналов : Front: L C R, Side: L R, LFE
Частота : 48,0 КГц
Битовая глубина : 16 бит
Метод сжатия : С потерями
Размер потока : 57,7 Мбайт (6%)



Данную раздачу можно скачивать при отсутствии сидирующих на трекере.
Скрыт Profile PM
Показать сообщения:    
Ответить на тему

Текущее время: 15-Сен 12:08

Часовой пояс: GMT + 3



Вы не можете начинать темы
Вы не можете отвечать на сообщения
Вы не можете редактировать свои сообщения
Вы не можете удалять свои сообщения
Вы не можете голосовать в опросах
Вы не можете прикреплять файлы к сообщениям
Вы не можете скачивать файлы
Рейтинг торрент трекеров - UpTracker.ru Анализ веб сайта Яндекс.Метрика
службы мониторинга серверов