Loading...
Error

Тот ещё Карлосон! (Сарик Андреасян) [2012 г., фэнтези, комедия, семейный, DVD5] |Сжатый лицензии|

Ответить на тему
 
Автор Сообщение

Theseus

Стаж: 10 лет

Сообщений: 5022

Режим только чтение: НЕТ

post 07-Апр-2012 18:58

Quote



Год выпуска: 2012
Жанр: фэнтези, комедия, семейный
Продолжительность: 01:20:28
Выпущено: Россия
Перевод: Не требуется
Режиссер: Сарик Андреасян
В ролях: Михаил Галустян, Нонна Гришаева, Гоша Куценко, Александр Олешко, Игорь Верник, Мария Сёмкина, Федя Смирнов, Степан Юрпалов, Олег Табаков, Семен Фурман
Описание:Герой Михаила Галустяна, прозванного в нашем мире за сходство КарлОсоном, живет в волшебном и красочном мире Метриков — пухлых большеухих летающих человечков метрового роста, миссия которых — помогать ребятишкам, которым взрослые, скорее, создают проблемы, нежели решают их. Метрики могут показываться детям, но вынуждены тщательно скрывать факт своего существования от скучных взрослых.
Наш герой — беззаботный, озорной, в меру эгоистичный сладкоежка, частенько сбегающий от соплеменников в мир людей, чтобы пошалить и порезвиться. Ведь в душе он сам еще ребенок — ему только-только исполнилось 300 лет...

Качество: DVD5
Формат: DVDVideo
Видео кодек: MPEG2
Аудио кодек: AC3/DTS
Видео: PAL 16:9 720х576 MPEG Video, 25,000 кадр/сек, 6147 Кбит/сек
Аудио #1: AC3, 3/2 (L,C,R,SL,SR)+LFE ch, 448 kbps, Delay 0 mSec
Аудио #2: DTS, 3/2 (L,C,R,SL,SR), 768 kbps, Delay 0 mSec
Аудио #3: AC3, 2/0 (L,R) ch, 192 kbps, Delay 0 mSec
Субтитры: Нет
Меню: Есть
Доп.материалы: Нет

Title: Tot.esho.Karloson.RGBM.2012.O.DVD-5
Size: 4.11 Gb ( 4 312 210,00 KBytes ) - DVD-5
Enabled regions: 5

VTS_01 :
Play Length: 00:00:00+{00:00:00}+{00:00:00}
Video: PAL 4:3 (720x576) VBR
Audio:
Russian (Dolby AC3, 6 ch)
English (Dolby AC3, 6 ch)
English (Dolby AC3, 6 ch)

VTS_02 :
Play Length: 01:20:28
Video: PAL 16:9 (720x576) VBR, Auto Pan&Scan, Auto Letterboxed
Audio:
Russian, AC3, 3/2 (L,C,R,SL,SR)+LFE ch, 448 kbps, Delay 0 mSec
Russian, DTS, 3/2 (L,C,R,SL,SR), 768 kbps, Delay 0 mSec
Russian, AC3, 2/0 (L,R) ch, 192 kbps, Delay 0 mSec


* Menus Information *

VIDEO_TS Menu
Video:
NTSC 4:3 (720x480) VBR
Auto Pan&Scan, Auto Letterboxed
English Language Unit :
Title Menu

VTS_01 Menu
Video:
PAL 4:3 (720x576) VBR
Audio:
Not specified (Dolby AC3, 2 ch)
English Language Unit :
Root Menu
Chapter (PTT) Menu

VTS_02 Menu
Video:
PAL 4:3 (720x576) VBR
English Language Unit :
Root Menu
Audio Menu
Chapter (PTT) Menu
Общее
Полное имя : G:\Tot.esho.Karloson.RGBM.2012.O.DVD-5\VIDEO_TS\VTS_02_1.VOB
Формат : MPEG-PS
Размер файла : 1024 Мбайт
Продолжительность : 18 м.
Режим общего битрейта : Переменный
Общий поток : 7695 Кбит/сек

Видео
Идентификатор : 224 (0xE0)
Формат : MPEG Video
Версия формата : Version 2
Профиль формата : Main@Main
Параметр BVOP формата : Да
Параметр матрицы формата : Выборочная
Продолжительность : 18 м.
Вид битрейта : Переменный
Битрейт : 6147 Кбит/сек
Максимальный битрейт : 8000 Кбит/сек
Ширина : 720 пикселей
Высота : 576 пикселей
Соотношение сторон : 16:9
Частота кадров : 25,000 кадров/сек
Стандарт вещания : PAL
Цветовое пространство : YUV
Субдискретизация насыщенности : 4:2:0
Битовая глубина : 8 бит
Тип развёртки : Прогрессивная
Метод сжатия : С потерями
Бит/(Пиксели*Кадры) : 0.593
Размер потока : 818 Мбайт (80%)

Аудио #1
Идентификатор : 189 (0xBD)-128 (0x80)
Формат : AC-3
Формат/Информация : Audio Coding 3
Расширение режима : CM (complete main)
Параметр Endianness формата : Big
Режим смешивания : DVD-Video
Продолжительность : 18 м.
Вид битрейта : Постоянный
Битрейт : 448 Кбит/сек
Каналы : 6 каналов
Расположение каналов : Front: L C R, Side: L R, LFE
Частота : 48,0 КГц
Битовая глубина : 16 бит
Метод сжатия : С потерями
Размер потока : 59,6 Мбайт (6%)

Аудио #2
Идентификатор : 189 (0xBD)-130 (0x82)
Формат : AC-3
Формат/Информация : Audio Coding 3
Расширение режима : CM (complete main)
Параметр Endianness формата : Big
Режим смешивания : DVD-Video
Продолжительность : 18 м.
Вид битрейта : Постоянный
Битрейт : 192 Кбит/сек
Каналы : 2 канала
Расположение каналов : Front: L R
Частота : 48,0 КГц
Битовая глубина : 16 бит
Метод сжатия : С потерями
Размер потока : 25,5 Мбайт (2%)

Аудио #3
Идентификатор : 189 (0xBD)-137 (0x89)
Формат : DTS
Формат/Информация : Digital Theater Systems
Режим смешивания : DVD-Video
Продолжительность : 18 м.
Вид битрейта : Постоянный
Битрейт : 755 Кбит/сек
Каналы : 6 каналов
Расположение каналов : Front: L C R, Side: L R, LFE
Частота : 48,0 КГц
Битовая глубина : 24 бит
Метод сжатия : С потерями
Размер потока : 100 Мбайт (10%)

Меню
1.Удалены предупреждения
2.Удалены видеозаставки



Данную раздачу можно скачивать при отсутствии сидирующих на трекере.
Скрыт Profile PM
Показать сообщения:    
Ответить на тему

Текущее время: 06-Дек 16:48

Часовой пояс: GMT + 3



Вы не можете начинать темы
Вы не можете отвечать на сообщения
Вы не можете редактировать свои сообщения
Вы не можете удалять свои сообщения
Вы не можете голосовать в опросах
Вы не можете прикреплять файлы к сообщениям
Вы не можете скачивать файлы
Рейтинг торрент трекеров - UpTracker.ru Анализ веб сайта Яндекс.Метрика
службы мониторинга серверов