Loading...
Error

Люди в черном 3 / Men in Black III (Барри Зонненфельд) [2012 г., фантастика, боевик, комедия, приключения, BDRip 1080p] |SidebySide / горизонтальная анаморфная стереопара|

Ответить на тему
 
Автор Сообщение

Theseus

Стаж: 8 лет 1 месяц

Сообщений: 4035

Режим только чтение: НЕТ

post 09-Сен-2012 19:21

Quote


Люди в черном 3 / Men in Black III

Год выпуска: 2012
Страна: США
Жанр: фантастика, боевик, комедия, приключения
Продолжительность: 01:45:49
Перевод: Профессиональный (полное дублирование)
Режиссер: Барри Зонненфельд
В ролях: Уилл Смит, Джош Бролин, Томми Ли Джонс, Джемейн Клемент, Эмма Томпсон, Майкл Стулбарг, Майк Колтер, Николь Шерзингер, Майкл Чернус, Элис Ив
Описание: Агент Джей узнает, что никакого защитного галактического щита, способного отразить иноземный удар, не существует. Агент Кей не построил его, потому что был убит в 1969 году. Агент Джей должен совершить путешествие во времени, чтобы спасти Землю и жизнь напарника.

Качество: BDRip 1080p
Формат: MKV
Видео кодек: H.264
Аудио кодек: AC3
Видео: 10.0 Mбит/с, 1920x1080, 23.976 кадр/с @ High@L4.1
Аудио:Dolby Digital Audio / 5.1 / 48 kHz / 448 kbps
Субтитры: Нет
Формат 3D: SidebySide / горизонтальная анаморфная стереопара
Format : Matroska
Format version : Version 2
File size : 7.41 GiB
Duration : 1h 45mn
Overall bit rate : 10.0 Mbps
Encoded date : UTC 2012-09-08 21:20:37
Writing application : mkvmerge v5.8.0 ('No Sleep / Pillow') built on Sep 2 2012 15:37:04
Writing library : libebml v1.2.3 + libmatroska v1.3.0

Video
ID : 1
Format : AVC
Format/Info : Advanced Video Codec
Format profile : High@L4.1
Format settings, CABAC : Yes
Format settings, ReFrames : 4 frames
Muxing mode : Header stripping
Codec ID : V_MPEG4/ISO/AVC
Duration : 1h 45mn
Bit rate : 9 380 Kbps
Nominal bit rate : 10 000 Kbps
Width : 1 920 pixels
Height : 1 080 pixels
Display aspect ratio : 16:9
Frame rate : 23.976 fps
Color space : YUV
Chroma subsampling : 4:2:0
Bit depth : 8 bits
Scan type : Progressive
Bits/(Pixel*Frame) : 0.189
Stream size : 6.93 GiB (94%)
Writing library : x264 core 120 r2146 bcd41db
Encoding settings : cabac=1 / ref=3 / deblock=1:0:0 / analyse=0x3:0x113 / me=hex / subme=7 / psy=1 / psy_rd=1.00:0.00 / mixed_ref=1 / me_range=16 / chroma_me=1 / trellis=1 / 8x8dct=1 / cqm=0 / deadzone=21,11 / fast_pskip=1 / chroma_qp_offset=-2 / threads=12 / sliced_threads=0 / nr=0 / decimate=1 / interlaced=0 / bluray_compat=0 / constrained_intra=0 / bframes=3 / b_pyramid=2 / b_adapt=1 / b_bias=0 / direct=1 / weightb=1 / open_gop=0 / weightp=2 / keyint=250 / keyint_min=23 / scenecut=40 / intra_refresh=0 / rc_lookahead=40 / rc=abr / mbtree=1 / bitrate=10000 / ratetol=1.0 / qcomp=0.60 / qpmin=0 / qpmax=69 / qpstep=4 / ip_ratio=1.40 / aq=1:1.00
Language : English

Audio
ID : 2
Format : AC-3
Format/Info : Audio Coding 3
Mode extension : CM (complete main)
Muxing mode : Header stripping
Codec ID : A_AC3
Duration : 1h 45mn
Bit rate mode : Constant
Bit rate : 448 Kbps
Channel(s) : 6 channels
Channel positions : Front: L C R, Side: L R, LFE
Sampling rate : 48.0 KHz
Bit depth : 16 bits
Compression mode : Lossy
Stream size : 339 MiB (4%)


Данную раздачу можно скачивать при отсутствии сидирующих на трекере.

_________________
Скрыт Profile PM

kotte

Стаж: 7 лет 9 месяцев

Сообщений: 2

Режим только чтение: НЕТ

post 13-Сен-2012 15:47 (спустя 3 дня)

Quote

Что то мне фильмец показался замыленым! Тематика сохранилась, но уже не то! Первые 2 части были динамичнее ! )) Приятного просмотра.
ps Хотя один раз посмотреть можно!
Вне форума Profile PM
Показать сообщения:    
Ответить на тему

Текущее время: 19-Окт 17:47

Часовой пояс: GMT + 3



Вы не можете начинать темы
Вы не можете отвечать на сообщения
Вы не можете редактировать свои сообщения
Вы не можете удалять свои сообщения
Вы не можете голосовать в опросах
Вы не можете прикреплять файлы к сообщениям
Вы не можете скачивать файлы
Рейтинг торрент трекеров - UpTracker.ru Анализ веб сайта Яндекс.Метрика
службы мониторинга серверов