Loading...
Error

Любовь с акцентом (Резо Гигинеишвили) [2012 г., комедия, приключения, DVD5(Сжатый)]

Ответить на тему
 
Автор Сообщение

Theseus

Стаж: 10 лет

Сообщений: 5003

Режим только чтение: НЕТ

post 28-Ноя-2012 13:24

Quote


Любовь с акцентом

Год выпуска: 2012
Жанр: комедия, приключения
Продолжительность: 01:39:41
Выпущено: Россия
Режиссер: Резо Гигинеишвили
В ролях: Филипп Янковский, Артур Смольянинов, Ирина Пегова, Анна Михалкова, Надежда Михалкова, Дута Схиртладзе, Светлана Бондарчук, Георгий Кипшидзе, Никита Ефремов, Ольга Баблуани
Описание: «Любовь с акцентом» — фильм о настоящей любви: яркой и страстной, зрелой и беспощадной, наивной и нелепой, счастливой и не очень. Истории героев сплетаются в одну большую ироничную комедию о том, что настоящая любовь не знает ни границ, ни законов, ни национальностей. Романтические приключения таких разных и непохожих друг на друга героев под аккомпанемент завораживающей южной природы.

Качество: DVD5(Сжатый) |Исходник > DVD9|
Формат: DVD-Video
Видео кодек: MPEG2
Аудио кодек: AC3
Видео: PAL 16:9 (720x576(0.529)) MPEG Video, 25,000 кадр/сек, 5 483 Кбит/сек
Аудио: Russian (Dolby AC3, 6 ch) 448 Кбит/сек, 48,0 КГц
Cубтитры: английские
Бонусы: нет
Меню: русское, статичное, озвученное
Title: Bob
Size: 4.37 Gb ( 4 585 435 KBytes ) - DVD-5
Enabled regions: 1, 2, 3, 4, 5, 6, 7, 8
VTS_01 :
Play Length:
Video: PAL 4:3 (720x576) VBR
Audio:
English (Dolby AC3, 2 ch)
VTS_02 :
Play Length:
Video: PAL 16:9 (720x576) VBR, Auto Pan&Scan
Audio:
English (MPEG1, 2 ch)
VTS_03 :
Play Length: 01:39:41
Video: PAL 16:9 (720x576) VBR, Auto Pan&Scan
Audio:
Russian (Dolby AC3, 6 ch)
Subtitles:
English
General
Complete name : E:\Lyubov.s.akcentom.2012.DVD5\VIDEO_TS\VTS_03_1.VOB
Format : MPEG-PS
File size : 1 024 MiB
Duration : 23mn 39s
Overall bit rate : 6 051 Kbps
Video
ID : 224 (0xE0)
Format : MPEG Video
Format version : Version 2
Format profile : Main@Main
Format settings, BVOP : Yes
Format settings, Matrix : Custom
Duration : 23mn 39s
Bit rate mode : Variable
Bit rate : 5 483 Kbps
Maximum bit rate : 7 994 Kbps
Width : 720 pixels
Height : 576 pixels
Display aspect ratio : 16:9
Frame rate : 25.000 fps
Standard : PAL
Color space : YUV
Chroma subsampling : 4:2:0
Bit depth : 8 bits
Scan type : Progressive
Scan order : Bottom Field First
Compression mode : Lossy
Bits/(Pixel*Frame) : 0.529
Stream size : 928 MiB (91%)
Audio
ID : 189 (0xBD)-128 (0x80)
Format : AC-3
Format/Info : Audio Coding 3
Mode extension : CM (complete main)
Muxing mode : DVD-Video
Duration : 23mn 39s
Bit rate mode : Constant
Bit rate : 448 Kbps
Channel(s) : 6 channels
Channel positions : Front: L C R, Side: L R, LFE
Sampling rate : 48.0 KHz
Bit depth : 16 bits
Compression mode : Lossy
Stream size : 75.8 MiB (7%)
Menu
Обработано в DVDRemake Pro.+Photoshop+Muxman
Видео сжималось 21%.
Сжималось связкой DVD Rebuilder + CCE/Procoder в 5 проходов.
Удалёно: Russian (DTS, 5 ch), заставки и предупреждение.
Лишние кнопки затерты и закрыты.
Меню

Фильм


Скрыт Profile PM
Показать сообщения:    
Ответить на тему

Текущее время: 21-Сен 01:52

Часовой пояс: GMT + 3



Вы не можете начинать темы
Вы не можете отвечать на сообщения
Вы не можете редактировать свои сообщения
Вы не можете удалять свои сообщения
Вы не можете голосовать в опросах
Вы не можете прикреплять файлы к сообщениям
Вы не можете скачивать файлы
Рейтинг торрент трекеров - UpTracker.ru Анализ веб сайта Яндекс.Метрика
службы мониторинга серверов