Loading...
Error

Реалити-шоу «Научи меня XCODE». Уроки по разработке для iOS Выпуски 1-? [2013, HDRip]

Ответить на тему
 
Автор Сообщение

AppleInsider

Стаж: 4 года 3 месяца

Сообщений: 1

Россия

Режим только чтение: НЕТ

post 19-Фев-2013 12:38

Quote

Реалити-шоу «Научи меня XCODE». Уроки по разработке для iOS
-=1 - ? выпуск=-


Год выпуска: 2013
Страна: Россия
Жанр: Реалити-шоу
Автор: AppleInsider.Ru
Продолжительность: ~ 45 минут
Качество: HDRip
Формат: m4v

Общая информация:
О программе:

Возможно ли научиться программировать для iPhone и iPad, не имея ни малейшего опыта? Вопрос непростой, и ответ на него мы пока не знаем. Алексей Алешков (технический директор компании Webparadox) на протяжении всего реалити-шоу будет учить Алексея Лигера (дизайнер и евангелист компании) азам программирования под iOS. От простого к сложному. От установки среды для разработки до публикации готового приложения в App Store. Понаблюдать за этим процессом и попробовать свои силы на этом непростом поприще мы вам и предлагаем.

Новые серии реалити-шоу будут выходить несколько раз в месяц. За это время вы можете без спешки разобрать все то, чему Алексей успеет научиться у своего опытного коллеги. Свои вопросы и пожелания оставляйте в комментариях, ведь это реалити-шоу, а значит — принять участие в его судьбе может каждый!

Смотреть СРАЗУ (1 выпуск):
Техническая информация:
Формат : MPEG-4
Идентификатор кодека : M4V
Размер файла : 743 Мбайт
Продолжительность : 46 м.
Режим общего битрейта : Переменный
Общий поток : 2242 Кбит/сек
Название фильма : Reality-show (1)
Альбом/Исполнитель : Renat Grishin
Композитор : Renat Grishin
Дата кодирования : UTC 2013-02-18 12:41:47
Дата пометки : UTC 2013-02-18 12:41:59
desc : This video is about Reality-show (1)
keyw : Reality 1,Webparadox

Видео
Идентификатор : 1
Формат : AVC
Формат/Информация : Advanced Video Codec
Профиль формата : High@L4.0
Параметр CABAC формата : Нет
Параметр ReFrames формата : 2 кадра
Идентификатор кодека : avc1
Идентификатор кодека/Информация : Advanced Video Coding
Продолжительность : 46 м.
Вид битрейта : Переменный
Битрейт : 2124 Кбит/сек
Максимальный битрейт : 12,7 Мбит/сек
Ширина : 1920 пикселей
Высота : 1080 пикселей
Соотношение сторон : 16:9
Режим частоты кадров : Постоянный
Частота кадров : 29,970 кадров/сек
Цветовое пространство : YUV
Субдискретизация насыщенности : 4:2:0
Битовая глубина : 8 бит
Тип развёртки : Прогрессивная
Бит/(Пиксели*Кадры) : 0.034
Размер потока : 704 Мбайт (95%)
Язык : English
Дата кодирования : UTC 2013-02-18 12:41:45
Дата пометки : UTC 2013-02-18 12:41:59
Основные цвета : BT.709
Характеристики трансфера : BT.709
Коэффициенты матрицы : BT.709

Аудио
Идентификатор : 2
Формат : AAC
Формат/Информация : Advanced Audio Codec
Профиль формата : LC
Идентификатор кодека : 40
Продолжительность : 46 м.
Продолжительность оригинала : 46 м.
Вид битрейта : Постоянный
Битрейт : 112 Кбит/сек
Номинальный битрейт : 128 Кбит/сек
Каналы : 2 канала
Расположение каналов : Front: L R
Частота : 48,0 КГц
Метод сжатия : С потерями
Задержка видео : 33 мс.
Размер потока : 37,1 Мбайт (5%)
Размер потока оригинала : 37,1 Мбайт (5%)
Язык : English
Дата кодирования : UTC 2013-02-18 12:41:45
Дата пометки : UTC 2013-02-18 12:41:59
Раздача обновляемая, новые выпуски будут добавляться по мере выхода!
31.07.2013 - раздача обновлена, добавлен новый выпуск

_________________
AppleInsider.ru


Последний раз редактировалось: AppleInsider (03-04-2013 12:12), всего редактировалось 2 раз(а)
Вне форума Profile PM

Nikolaich

Стаж: 7 лет 10 месяцев

Сообщений: 2209

Эквадор

Режим только чтение: НЕТ

post 05-Мар-2013 11:08 (спустя 13 дней)

Quote

Раздаче - "Золото"! Скачанное не учитывается.

_________________
Мы жизнь учили по Геращенко
И все мы - пациенты Кащенко
Вне форума Profile PM

vtorjenie

Стаж: 4 года 3 месяца

Сообщений: 1

Россия

Режим только чтение: НЕТ

post 29-Апр-2013 19:56 (спустя 1 месяц 24 дня)

Quote

Как скачать видео подскажите?!!!
Вне форума Profile PM

Nikolaich

Стаж: 7 лет 10 месяцев

Сообщений: 2209

Эквадор

Режим только чтение: НЕТ

post 30-Апр-2013 12:45 (спустя 16 часов)

Quote

vtorjenie писал(а):

Как скачать видео подскажите?!!!
Нужно не только качать, но и раздавать!
В Вашем профиле указано:

Цитата:

Всего скачано: 11,6 GB
Всего отдано: 102 MB

Цитата:

Рейтинг: 0,01
http://torrent.rus.ec/viewtopic.php?t=8970

_________________
Мы жизнь учили по Геращенко
И все мы - пациенты Кащенко
Вне форума Profile PM

Gemini13

Стаж: 6 лет

Сообщений: 1

Режим только чтение: НЕТ

post 19-Май-2013 15:30 (спустя 19 дней)

Quote

AppleInsider, продолжение будет? :)
Вне форума Profile PM

gekabar

Стаж: 3 года 11 месяцев

Сообщений: 9

Режим только чтение: НЕТ

post 24-Июн-2013 18:36 (спустя 1 месяц 5 дней)

Quote

Да, 2 раза в месяц выходят серии
Вне форума Profile PM

artlee

Стаж: 3 года 10 месяцев

Сообщений: 1

Режим только чтение: НЕТ

post 30-Июн-2013 08:27 (спустя 5 дней)

Quote

если голосовать на топтрекере как быстро обновляется рейтинг? я проголосовал, а бонуса не появилось!

Nikolaich писал(а):

vtorjenie писал(а):

Как скачать видео подскажите?!!!
Нужно не только качать, но и раздавать!
В Вашем профиле указано:

Цитата:

Всего скачано: 11,6 GB
Всего отдано: 102 MB

Цитата:

Рейтинг: 0,01
http://torrent.rus.ec/viewtopic.php?t=8970
Скрыт Profile PM

Nikolaich

Стаж: 7 лет 10 месяцев

Сообщений: 2209

Эквадор

Режим только чтение: НЕТ

post 30-Июн-2013 22:17 (спустя 13 часов)

Quote

Не по теме:

artlee писал(а):

если голосовать на топтрекере как быстро обновляется рейтинг? я проголосовал, а бонуса не появилось!
Голосовать нужно строго по кнопке, будучи залогиненным.

_________________
Мы жизнь учили по Геращенко
И все мы - пациенты Кащенко
Вне форума Profile PM

olegalla

Стаж: 4 года 2 месяца

Сообщений: 1

Россия

Режим только чтение: НЕТ

post 17-Июл-2013 12:50 (спустя 16 дней)

Quote

А когда тут будет добавлен 11 урок?
Вне форума Profile PM

Nikolaich

Стаж: 7 лет 10 месяцев

Сообщений: 2209

Эквадор

Режим только чтение: НЕТ

post 17-Июл-2013 18:07 (спустя 5 часов)

Quote

olegalla писал(а):

А когда тут будет добавлен 11 урок?
Уже Smile

_________________
Мы жизнь учили по Геращенко
И все мы - пациенты Кащенко
Вне форума Profile PM
Показать сообщения:    
Ответить на тему

Текущее время: 23-Май 09:50

Часовой пояс: GMT + 3



Вы не можете начинать темы
Вы не можете отвечать на сообщения
Вы не можете редактировать свои сообщения
Вы не можете удалять свои сообщения
Вы не можете голосовать в опросах
Вы не можете прикреплять файлы к сообщениям
Вы не можете скачивать файлы
Рейтинг торрент трекеров - UpTracker.ru Анализ веб сайта Яндекс.Метрика
службы мониторинга серверов