Loading...
Error

Доспехи Бога 3: Миссия Зодиак / Chinese Zodiac (Джеки Чан) [2012 г., боевик, комедия, приключения, BDRip 1080p] |Горизонтальная анаморфная стереопара (Half Side-by-Side)|

Ответить на тему
 
Автор Сообщение

Theseus

Стаж: 8 лет 2 месяца

Сообщений: 4132

Режим только чтение: НЕТ

post 14-Мар-2013 15:59

Quote



Доспехи Бога 3: Миссия Зодиак / Chinese Zodiac

Год выпуска: 2012
Страна: Гонконг, Китай
Жанр: боевик, комедия, приключения
Продолжительность: 02:02:56
Перевод: Профессиональный (полное дублирование)
Режиссер: Джеки Чан
В ролях: Джеки Чан, Квон Сан У, Ляо Фань, Синтхун Яо, Чжан Ланьсинь, Лаура Вейссбеккер, Оливер Платт, Эмили Гуйо, Кэйтлин Дешель, Кенни Джи
Описание: Главный герой истории — работающий по всему миру охотник за сокровищами Джей Си по кличке Ястреб. Известный антиквар предлагает ему отыскать шесть редких статуэток в виде голов животных. В свое время эти бронзовые скульптуры входили в набор из 12-ти предметов, олицетворявших знаки зодиака. Фигурки украшали фонтан легендарного Летнего дворца на окраине Пекина. В 1860 году величественное сооружение было разграблено и разрушено англо-французскими войсками на исходе Второй опиумной войны, а статуэтки безвозвратно утеряны.
Сначала Джей Си с командой помощников отправляется во Францию, поскольку две статуэтки хранятся у одного из французских коллекционеров. В процессе операции по изъятию бронзовых скульптур из хорошо охраняемого замка Джей Си знакомится с Коко — китайской студенткой, учащейся в Париже. Девушка принимает активное участие в глобальной кампании по возвращению утраченных культурных ценностей в страны, откуда они были вывезены. Попутно Джей Си наживает себе злейшего врага в лице Пьера, шефа охраны замка Шато Марсо. Вместе с тем, охотник за сокровищами обретает верного друга в лице Кэтрин, разорившейся аристократки, в доме которой он находит одну из статуэток. Коко и Кэтрин присоединяются к компании Ястреба.
Группа в обновленном составе направляется на тропический остров, где среди обломков севшего на мель корабля спрятаны еще две статуэтки. В тропиках Джею Си и его друзьям противостоит банда разношерстных пиратов. Только благодаря безупречным боевым навыкам героя удается одержать верх. Вернувшись домой, Джей Си с удивлением узнает, что таинственный заказчик уже собрал шесть других статуэток. Ничего удивительного в том, что Ястреб собирается преподать ему урок хороших манер.

Качество: BDRip 1080p
Формат: MKV
Видео кодек: x.264
Аудио кодек: AC3/DTS
Видео: MPEG4 AVC 1920x804, 23,976 fps, 12 Mbps
Аудио 1: Russian DTS, 48.0 KHz, 6 ch, 1510 Kbps, CBR
Аудио 2: Russian AC-3, 48.0 KHz, 6 ch, 448 Kbps, CBR
Аудио 3: Chinese DTS, 48.0 KHz, 6 ch, 1510 Kbps, CBR
Дополнительно: Сохранены оригинальные чаптеры Blu-ray
Формат 3D: Half Side-by-Side / горизонтальная анаморфная стереопара

Общее
Полное имя : E:VideoChinese.Zodiac.2012.D.3D.BluRay.HSBS.1080p.mkv
Формат : Matroska
Версия формата : Version 2
Размер файла : 15,7 Гбайт
Продолжительность : 2 ч. 3 м.
Режим общего битрейта : Переменный
Общий поток : 18,3 Мбит/сек
Название фильма : CHINESE_ZODIAC.Title5.Bluray3DRip
Дата кодирования : UTC 2013-03-13 20:06:49
Программа кодирования : mkvmerge v6.1.0 ('Old Devil') built on Mar 2 2013 14:32:37
Библиотека кодирования : libebml v1.3.0 + libmatroska v1.4.0

Видео
Идентификатор : 1
Формат : AVC
Формат/Информация : Advanced Video Codec
Профиль формата : High@L4.1
Параметр CABAC формата : Да
Параметр ReFrames формата : 3 кадра
Параметр GOP формата : M=4, N=24
Идентификатор кодека : V_MPEG4/ISO/AVC
Продолжительность : 2 ч. 3 м.
Ширина : 1920 пикселей
Высота : 804 пикселя
Соотношение сторон : 2,40:1
Режим частоты кадров : Постоянный
Частота кадров : 23,976 кадра/сек
Цветовое пространство : YUV
Субдискретизация насыщенности : 4:2:0
Битовая глубина : 8 бит
Тип развёртки : Прогрессивная
Библиотека кодирования : x264 core
Язык : Chinese
Default : Да
Forced : Нет
Основные цвета : BT.709
Характеристики трансфера : BT.709
Коэффициенты матрицы : BT.709

Аудио #1
Идентификатор : 2
Формат : DTS
Формат/Информация : Digital Theater Systems
Профиль формата : MA / Core
Режим : 16
Параметр Endianness формата : Big
Идентификатор кодека : A_DTS
Продолжительность : 2 ч. 3 м.
Вид битрейта : Переменный
Битрейт : 1510 Кбит/сек
Каналы : 6 каналов
Расположение каналов : Front: L C R, Side: L R, LFE
Частота : 48,0 КГц
Битовая глубина : 24 бит
Метод сжатия : Без потерь / Lossy
Заголовок : DTS 5.1 1510 kbps
Язык : Russian
Default : Да
Forced : Нет

Аудио #2
Идентификатор : 3
Формат : AC-3
Формат/Информация : Audio Coding 3
Расширение режима : CM (complete main)
Параметр Endianness формата : Big
Идентификатор кодека : A_AC3
Продолжительность : 2 ч. 3 м.
Вид битрейта : Постоянный
Битрейт : 448 Кбит/сек
Каналы : 6 каналов
Расположение каналов : Front: L C R, Side: L R, LFE
Частота : 48,0 КГц
Битовая глубина : 16 бит
Метод сжатия : С потерями
Размер потока : 394 Мбайт (2%)
Заголовок : AC3 5.1 448 kbps
Язык : Russian
Default : Нет
Forced : Нет

Аудио #3
Идентификатор : 4
Формат : DTS
Формат/Информация : Digital Theater Systems
Режим : 16
Параметр Endianness формата : Big
Идентификатор кодека : A_DTS
Продолжительность : 2 ч. 3 м.
Вид битрейта : Постоянный
Битрейт : 1510 Кбит/сек
Каналы : 6 каналов
Расположение каналов : Front: L C R, Side: L R, LFE
Частота : 48,0 КГц
Битовая глубина : 16 бит
Метод сжатия : С потерями
Размер потока : 1,30 Гбайт (8%)
Заголовок : DTS 5.1 1510 kbps
Язык : Chinese
Default : Нет
Forced : Нет

Меню
00:00:00.000 : en:(01)00:00:00:000
00:11:28.020 : en:(02)00:11:28:020
00:18:16.428 : en:(03)00:18:16:428
00:25:15.347 : en:(04)00:25:15:347
00:33:39.559 : en:(05)00:33:39:559
00:44:12.107 : en:(06)00:44:12:107
00:55:15.312 : en:(07)00:55:15:312
01:10:04.241 : en:(08)01:10:04:241
01:16:55.777 : en:(09)01:16:55:777
01:25:34.087 : en:(10)01:25:34:087
01:39:21.705 : en:(11)01:39:21:705
01:50:38.423 : en:(12)01:50:38:423
02:03:05.294 : en:(13)02:03:05:294


Данную раздачу можно скачивать при отсутствии сидирующих на трекере.

Скрыт Profile PM
Показать сообщения:    
Ответить на тему

Текущее время: 14-Дек 23:52

Часовой пояс: GMT + 3



Вы не можете начинать темы
Вы не можете отвечать на сообщения
Вы не можете редактировать свои сообщения
Вы не можете удалять свои сообщения
Вы не можете голосовать в опросах
Вы не можете прикреплять файлы к сообщениям
Вы не можете скачивать файлы
Рейтинг торрент трекеров - UpTracker.ru Анализ веб сайта Яндекс.Метрика
службы мониторинга серверов