Loading...
Error

Комплекс упражнений цигун - Фалунь Дафа Фалуньгун / Complex of exercises a chi kung - Falun Dafa Falungong [1994 г., Китайская гимнастика, цигун, самосовершенствование, оздоровление, DVDRip]

Ответить на тему
 
Автор Сообщение

Floma

Стаж: 7 лет

Сообщений: 4

Ангилья

Режим только чтение: НЕТ

post 04-Июн-2013 10:57

Quote

Комплекс упражнений цигун - Фалунь Дафа Фалуньгун / Complex of exercises a chi kung - Falun Dafa Falungong

Год выпуска: 1994
Страна: Китай
Жанр: Китайская гимнастика, цигун, самосовершенствование, оздоровление
Продолжительность: 00:58:46

Описание: Язык: китайский
Перевод: русский
Субтитры: нет
Режиссер: Мастер Ли Хунчжи (Li Hongzhi)
Исполнители: Мастер Ли Хунчжи (Li Hongzhi)

Описание: Вашему вниманию предлагаются видео-уроки (5 комплексов) упражнений практики Фалунь Дафа Фалуньгун.
Уроки проводит - Мастер Ли Хунчжи (Li Hongzhi).

Внимание! Перед началом выполнения упражнений (практик), для достижения правильного, максимального и долгосрочного эффекта, - очень важно ознакомиться с теоретической частью, изложенной в лекциях (см. раздел "Другие раздачи на эту тему") или в книге Мастера Ли Хунчжи.
Мастер Ли Хунчжи является основателем Фалунь Дафа (дословный перевод: Фалунь — «колесо Закона»; Дафа — «Великий Закон»), также называется Фалуньгун — система совершенствования души и тела, которая была впервые представлена широкой общественности в Китае в 1992 году в форме традиционной китайской оздоровительной практики цигун.
В последствии на основе лекций Мастера была издана книга.

В основу учения Фалунь Дафа, которое рассказывает о Вселенной и месте в ней человека, положен универсальный принцип «Истина Доброта Терпение». Практика также включает в себя пять комплексов энергетических упражнений для очищения и преобразования тела.
Кроме полного оздоровления физического тела, практикуя по Фалуньгун можно достичь высокой степени нравственности, освобождения от стрессов, раскрытия энергии, спокойствия ума и высокого духовного уровня вплоть до состояния Просветления.

Практика Фалуньгун полностью адаптирована к современной жизни.
Нет ограничений в возрасте, времени и месте занятий.
Занятия полностью бесплатные, нет взносов и пожертвований.
Нет регистрации, процедуры вступления и выхода.
Фалуньгун не преследует политических и коммерческих целей.
Нет расовых, национальных и культурных ограничений.

Упражнения медленные и плавные, не требуют большого пространства, специальной физической подготовки и доступны для людей любого возраста.
Их можно выучить, как самостоятельно по видео обучению или описанию с фотографиями, так и в группе на пункте практики, что более предпочтительно.
Заниматься также можно дома самостоятельно или же в группе, последнее более предпочтительно.

В настоящее время практикой Фалунь Дафа занимаются десятки миллионов человек в 111 странах и 3 автономных районах (Тайване, Гонконге и Макао).

Работы Мастера Ли Хунчжи переведены более чем на 30 языков, включая основные европейские и русский.

Более двух лет Учитель Ли ездил по всему Китаю, где под эгидой местных Ассоциаций исследования цигун и при поддержке правительственных ведомств провёл более 50 серий лекций по теории и практике Фалуньгун, которые посетили более 100 тысяч человек.
В 1993 году на Восточной выставке здоровья в Пекине Мастеру Ли Хунчжи присвоили звание «Народный мастер цигун», а также вручили самую высокую награду «За лучшие достижения в области нестандартных наук» и «Специальную золотую премию».

В 1995 году Мастер Ли Хунчжи начал проводить лекции за рубежом, получив приглашения посетить Швецию, Францию, Германию, США, Канаду, Австралию и Тайвань.

В 1996 году основной труд Учителя Ли, книга «Чжуань Фалунь» попала в десятку бестселлеров Пекина, по версии издания «Пекинская молодёжь» (Beijing Youth Daily).

В 1998 году только в одном Китае практикой Фалуньгун занималось около 100 миллионов человек.
— В 2000 и 2001 году Мастера Ли Хунчжи выдвигали на соискание Нобелевской премии мира;
— В 2001 году он был награждён премией «Дома свободы» (Freedom House) и стал номинантом учреждённой Европарламентом Премии имени Сахарова «За свободу мысли»;
— В 2007 году был назван гением и занял 12-ю позицию в рейтинге «100 гениев современности», составленном международной консалтинговой компанией Creators Synectics;
— В 2009 году был награждён премией «Духовный лидер — 2009», учреждённой Азиатско-тихоокеанским фондом защиты прав человека.

В настоящее время Фалунь Дафа и Мастер Ли Хунчжи получили более трёх тысяч наград, дипломов правительственных грамот и официальных писем благодарности и поддержки в более 20 странах, в том числе 5 наград в континентальном Китае до репрессий и 10 наград в Тайване.



Прошу скачавших оставаться на раздаче, как можно дольше!






Качество: DVDRip
Формат: AVI
Видео кодек: XviD
Аудио кодек: AC3
Видео: XviD; 720x544 (4:3); 25 fps; XviD; 1272 Kbps
Аудио: AC3; 384 Kbps; CBR; 2 ch
General
Complete name : Dafa_upr.avi
Format : AVI
Format/Info : Audio Video Interleave
File size : 700 MiB
Duration : 58mn 46s
Overall bit rate : 1 666 Kbps
Writing application : VirtualDubMod 1.5.10.2 (build 2540/release)
Writing library : VirtualDubMod build 2540/release

Video
ID : 0
Format : MPEG-4 Visual
Format profile : Advanced Simple@L5
Format settings, BVOP : 2
Format settings, QPel : No
Format settings, GMC : No warppoints
Format settings, Matrix : Default (MPEG)
Codec ID : XVID
Codec ID/Hint : XviD
Duration : 58mn 46s
Bit rate : 1 272 Kbps
Width : 720 pixels
Height : 544 pixels
Display aspect ratio : 4:3
Frame rate : 25.000 fps
Color space : YUV
Chroma subsampling : 4:2:0
Bit depth : 8 bits
Scan type : Progressive
Compression mode : Lossy
Bits/(Pixel*Frame) : 0.130
Stream size : 535 MiB (76%)
Writing library : XviD 1.2.1 (UTC 2008-12-04)

Audio
ID : 1
Format : AC-3
Format/Info : Audio Coding 3
Mode extension : CM (complete main)
Format settings, Endianness : Big
Codec ID : 2000
Duration : 58mn 46s
Bit rate mode : Constant
Bit rate : 384 Kbps
Channel(s) : 2 channels
Channel positions : Front: L R
Sampling rate : 48.0 KHz
Bit depth : 16 bits
Compression mode : Lossy
Stream size : 161 MiB (23%)
Alignment : Split accross interleaves
Interleave, duration : 40 ms (1.00 video frame)
Interleave, preload duration : 500 ms
Вне форума Profile PM
Показать сообщения:    
Ответить на тему

Текущее время: 14-Дек 23:52

Часовой пояс: GMT + 3



Вы не можете начинать темы
Вы не можете отвечать на сообщения
Вы не можете редактировать свои сообщения
Вы не можете удалять свои сообщения
Вы не можете голосовать в опросах
Вы не можете прикреплять файлы к сообщениям
Вы не можете скачивать файлы
Рейтинг торрент трекеров - UpTracker.ru Анализ веб сайта Яндекс.Метрика
службы мониторинга серверов