Loading...
Error

Мастер свадебного видеодизайна (Роман Голосницкий) [2012 г., Обучающее видео, PCRec ]

Ответить на тему
 
Автор Сообщение

Ruvest

Стаж: 8 лет 3 месяца

Сообщений: 416

Украина

Режим только чтение: НЕТ

post 29-Ноя-2013 08:45

Quote

Мастер свадебного видеодизайна


Год выпуска: 2012
Страна: Россия
Жанр: Обучающее видео
Продолжительность: 19:27:02
Перевод: Не требуется
Автор: Роман Голосницкий

Описание:
Для тех, кто действительно хочет быстро, за одну - две недели, овладеть приемами коммерческого видеодизайна, предлагается данное видео руководство.
"МАСТЕР ВИДЕОМОНТАЖА - КУРС НОВОГОДНИЙ",
рассчитана на тех, кто только начинает осваивать видеомонтаж с нуля.
ДЕТСКИЙ НОВОГОДНИЙ УТРЕННИК
Не смотря на то, что тема детская, она требует широкого полета фантазий при работе со всевозможными эффектами и использования максимального количества главных значимых для коммерческого видеомонтажа функций и возможностей. Такие проекты коммерчески очень выгодны, потому что имеют хорошее соотношение временных и трудозатрат к оплате в случае, если Вы будете делать их на заказ.
Видео-урок 1. Практический видеомонтаж. Вступление
Видео-урок 2. Создание первой заставки
Видео-урок 3. Создание слайдов
Видео-урок 4. Перенос слайдшоу на видеодорожку в Vegas
Видео-урок 5. Диснеевские герои. Эффект модуляции цвета (Хромакей)
Видео-урок 6. Лучи по периметру экрана
Видео-урок 7. Добавляем снег и звезды - работа с альфа-каналом
Видео-урок 8. Делаем бегущую строку - работа с титрами
Видео-урок 9. Делаем вторую заставку - работа с футажами и титрами
Видео-урок 10. Эффекты перелистования страниц и фотовспышки
Видео-урок 11. Оцифровка проекта или выделенной области
Видео-урок 12. Эффекты насыщенности, яркости, контрастности
Видео-урок 13. Делаем обрезку видеофрагмента интервью
Видео-урок 14. Редактируем звук видеофрагмента
Видео-урок 15. Вставляем заставку - знакомство со сказочными героями
Видео-урок 16. Добавляем свечение и снег к детскому интервью
Видео-урок 17. Заставка для видеофрагмента родителей
Видео-урок 18. Делаем заставку - наш праздник начинается
Видео-урок 19. Делаем монтаж начала детского утреника
Видео-урок 20. Делаем свечение над головой у девочки
Видео-урок 21. Добавляем фейерверк, лучи, снег
Видео-урок 22. Добавляем диснеевких персонажей - работа с хромакей
Видео-урок 23. Эффект вырезания форм и растушевка
Видео-урок 24. Эффект присутствия - добавляем движение мультяшных героев по экрану
Видео-урок 25. Добавляем эффект выреза форм и ключевые кадры к нему
Видео-урок 26. Работа с профессиональной коллекцией переходов Adorage
Видео-урок 27. Завершаем монтаж видео
Видео-урок 28. Делаем рекламную заставку со своим телефоном
Видео-урок 29. Подставляем рекламную заставку в заключение проекта
Видео-урок 30. Оцифровка проекта и получение готового файла
Видео-урок 31. Проверяем и просматриваем оцифрованный файл
Видео-урок 32. Создание меню в Pinnacle Studio
Видео-урок 33. Запись DVD-диска в программе Pinnacle Studio

ОСНОВНОЙ КУРС "МАСТЕР СВАДЕБНОГО ВИДЕОДИЗАЙНА"
Содержит обзорные и основные видеомастерклассы по созданию красочного свадебного фильма.
Видео-урок 1. Общий обзор курса
Видео-урок 2. Вводный урок
Видео-урок 3. Обзор эффектов видеоролика до мастер-класса "Три воздушных поцелуя"
Видео-урок 4. Мастер-класс "Пять воздушных поцелуев"
Видео-урок 5. Корректировка и оцифровка "Пять воздушных поцелуев"
Видео-урок 6. Обзор видеомонтажа от выхода жениха из дома до монтажа невесты
Видео-урок 7. Добавляем белую дымку к видеофрагменту невесты - обзор эффектов "Свечение" и "Лучи света"
Видео-урок 8. Добавляем движение блестки по колье невесты
Видео-урок 9. Добавляем эффект блеска бегущего вдоль колье невесты
Видео-урок 10. Обзор эффектов монтажа видео до мастер-класса "Волшебный лес"
Видео-урок 11. Рекомендации к монтажу мастер-класса "Волшебное сердце" и "Сказочный лес"
Видео-урок 12. Видео-мастер-класс "Сказочный лес"
Видео-урок 13. Обзор эффектов от выкупа невесты до торжественной регистрации
Видео-урок 14. Видео-мастер-класс "Зеркальная комната"
Видео-урок 15. Видео-мастер-класс "Горящий палец"
Видео-урок 16. Видео-мастер-класс "Тройное панорамирование"
Видео-урок 17. Видео-мастер-класс "Две невесты в зеркальном зале"
Видео-урок 18. Монтаж торжественной регистрации до отъезда молодоженов по достопримечательностям
Видео-урок 19. Видео-мастер-класс "Искривление пространства" и "Пять сердец"
Видео-урок 20. Видео-мастер-класс "Прятки"
Видео-урок 21. Видео-мастер-класс "Видеодвойники" - подготовка, видеосъемка
Видео-урок 22. Видео-мастер-класс "Свадебные видеодвойники"
Видео-урок 23. Видео-мастер-класс "Стелющийся шлейф из листьев"
Видео-урок 24. Обзор монтажа от момента отъезда молодоженов от ЗАГСа до кафе
Видео-урок 25. Видео-мастер-класс "Шаровая молния"
Видео-урок 26. Видео-мастер-класс "Острова любви"
Видео-урок 27. Видео-мастер-класс "Острова любви". Подробности
Видео-урок 28. Обзор видеомонтажа второй части свадебного фильма
Видео-урок 29. Обзор видеомонтажа второй части свадебного фильма.

Кроме того, вместе с основными видео-курсами Вы получаете шикарные подарочные курсы, которые достойны отдельного внимания:
ЭЛЕМЕНТАРНЫЕ ОПЕРАЦИИ В ПРОГРАММЕ SONY VEGAS 10 PRO
СОЗДАНИЕ ТИТРОВ В ПРОГРАММЕ BLUFFTITLER DX9
БОНУСЫ
МАСТЕРКЛАСС - ШКОЛА ВОЛШЕБНИЦ
МАСТЕРКЛАСС - ОХОТА НА БАБОЧКУ
МАСТЕР СОЗДАНИЯ СЛАЙДОВ
ПЕЧАТЬ НА ДИСК НА ПРИНТЕРЕ EPSON STYLUS 1800
ГОТОВЫЕ СВАДЕБНЫЕ ВИДЕОЗАСТАВКИ
Общее
Полное имя : E:\master_svadebnogo_dizainu
Формат : MPEG-4
Профиль формата : Base Media / Version 2
Идентификатор кодека : mp42
Размер файла : 11,5 Мбайт
Продолжительность : 1 м. 16 с.
Общий поток : 1264 Кбит/сек
Дата кодирования : UTC 2012-03-21 11:13:35
Дата пометки : UTC 2012-03-21 11:13:35

Видео
Идентификатор : 1
Формат : AVC
Формат/Информация : Advanced Video Codec
Профиль формата : High@L4.0
Параметр CABAC формата : Да
Параметр ReFrames формата : 4 кадра
Идентификатор кодека : avc1
Идентификатор кодека/Информация : Advanced Video Coding
Вид битрейта : Переменный
Битрейт : 1208 Кбит/сек
Ширина : 1000 пикселей
Высота : 700 пикселей
Соотношение сторон : 1,429
Режим частоты кадров : Постоянный
Частота кадров : 17,000 кадров/сек
Цветовое пространство : YUV
Субдискретизация насыщенности : 4:2:0
Битовая глубина : 8 бит
Тип развёртки : Прогрессивная
Бит/(Пиксели*Кадры) : 0.102
Размер потока : 11,0 Мбайт (96%)
Размер потока оригинала : 11,0 Мбайт (96%)
Язык : English
Дата кодирования : UTC 2012-03-21 11:13:35
Дата пометки : UTC 2012-03-21 11:13:35
mdhd_Duration : 76352
Основные цвета : BT.709
Характеристики трансфера : BT.709
Коэффициенты матрицы : BT.709

Аудио
Идентификатор : 2
Формат : AAC
Формат/Информация : Advanced Audio Codec
Профиль формата : LC
Идентификатор кодека : 40
Вид битрейта : Постоянный
Битрейт : 53,3 Кбит/сек
Каналы : 2 канала
Расположение каналов : Front: L R
Частота : 48,0 КГц
Метод сжатия : С потерями
Размер потока : 497 Кбайт (4%)
Размер потока оригинала : 497 Кбайт (4%)
Язык : English
Дата кодирования : UTC 2012-03-21 11:13:35
Дата пометки : UTC 2012-03-21 11:13:35
mdhd_Duration : 76370
Качество: PCRec
Формат: MP4
Видео: AVC (H264) 100x700 17.000 кадров/сек
Аудио: AAC 53,3 Кбит/сек stereo 48,0 КГц
Вне форума Profile PM
Показать сообщения:    
Ответить на тему

Текущее время: 20-Ноя 22:15

Часовой пояс: GMT + 3



Вы не можете начинать темы
Вы не можете отвечать на сообщения
Вы не можете редактировать свои сообщения
Вы не можете удалять свои сообщения
Вы не можете голосовать в опросах
Вы не можете прикреплять файлы к сообщениям
Вы не можете скачивать файлы
Рейтинг торрент трекеров - UpTracker.ru Анализ веб сайта Яндекс.Метрика
службы мониторинга серверов