Loading...
Error

Camtasia Studio от А до Я (Игорь Полищук) [2013 г., Обучающее видео, SWF]

Ответить на тему
 
Автор Сообщение

Ruvest

Стаж: 8 лет 3 месяца

Сообщений: 416

Украина

Режим только чтение: НЕТ

post 03-Дек-2013 22:07

Quote

Camtasia Studio от А до Я


Год выпуска: 2013
Страна: Россия
Жанр: Обучающее видео
Продолжительность: 03:01:43
Перевод: Не требуется

Режиссер: Игорь Полищук

Системные требования:
Adobe Flash Player или KMPlayer

Описание:
Хотите узнать, как самостоятельно можно создавать свои собственные обучающие видеоролики? Тогда смотрите этот обучающий видеокурс который полностью посвящен, подробному изучению программы Camtasia Studio, программы для создания обучающего видео и зарабатывайте на этом деньги.
Это правда, на обучающих курсах сегодня делаются большие деньги. Некоторые Инфо-бизнесмены, имея всего один продукт, зарабатывают сотни тысяч рублей в месяц. Да именно сотни, ведь это Интернет и здесь ставка делается на массовость аудитории, и Вы так же можете стать частью этого Интернет-бизнеса.
Но для того, чтобы создать свой инфо-продукт, первое что Вам нужно сделать, это изучить программу Camtasia Studio. Вы удивитесь, как это просто и задача этого курса состоит в том, чтобы доказать это. Доказать, что это очень просто и доступно абсолютно каждому.
Из курса Вы узнаете, из чего состоит программа и что входит в её комплект. Изучите все её пункты и инструменты.
Подробно изучите все настройки редактора и рекордера.
Вы научитесь записывать видео с экрана монитора и правильно выставлять размер снимаемой области.
Вы узнаете, как добавлять в ваше видео, различные подсказки, указатели, текст.
Вы научитесь добавлять в видео, элементы с эффектом рисования.
Узнаете, как выделять отдельные области экрана или наоборот, скрывать их.
Вы узнаете, как превратить любой добавленный объект, на экране, в ссылку для перехода на сайт.
Вы научитесь, увеличивать отдельные области экрана, приближая их содержимое.
Научитесь редактировать звук. Изменять громкость. Удалять шумы и помехи.
Вы узнаете, как накладывать один звук на другой. Научитесь заменять звук, как полностью, так и в отдельных участках.
Научитесь разделять ролик и добавлять в него эффектные переходы.
Узнаете, как добавлять различные, визуальные и звуковые эффекты курсора.
Вы научитесь записывать видео с WEB-камеры и добавлять его в ролик.
Узнаете все тонкости, добавления и редактирования картинки в картинке.
Вы научитесь создавать слайдовые презентации и добавлять в них подписи.
Научитесь добавлять в ролик различные опросы, викторины, тесты, для более близкого контакта с аудиторией.
Вы узнаете, для чего нужна "Библиотека" и как её использовать.
Вы научитесь добавлять водяной знак (знак авторства), в ролик.
Узнаете, как создавать меню в Camtasia MenuMaker.
Вы научитесь размещать ролики на YouTube и Screencast. Научитесь размещать ролики у себя на сайте.
Вы научитесь добавлять в видео, элементы с эффектом рисования.
Общее
Полное имя : E:\Camtasia Studio от А до Я
Формат : MPEG-4
Профиль формата : Base Media / Version 2
Идентификатор кодека : mp42
Размер файла : 23,4 Мбайт
Режим общего битрейта : Переменный
Общий поток : 640 Кбит/сек
Название фильма : 02
Дата кодирования : UTC 2013-08-31 17:52:17
Дата пометки : UTC 2013-08-31 17:52:17

Видео
Идентификатор : 1
Формат : AVC
Формат/Информация : Advanced Video Codec
Профиль формата : Baseline@L3.1
Параметр CABAC формата : Нет
Параметр ReFrames формата : 3 кадра
Идентификатор кодека : avc1
Идентификатор кодека/Информация : Advanced Video Coding
Вид битрейта : Переменный
Битрейт : 576 Кбит/сек
Ширина : 1024 пикселя
Высота : 648 пикселей
Соотношение сторон : 1,580
Режим частоты кадров : Переменный
Частота кадров : 15,000 кадров/сек
Минимальная частота кадров : 15,000 кадров/сек
Максимальная частота кадров : 15,008 кадров/сек
Цветовое пространство : YUV
Субдискретизация насыщенности : 4:2:0
Битовая глубина : 8 бит
Тип развёртки : Прогрессивная
Бит/(Пиксели*Кадры) : 0.058
Размер потока : 21,1 Мбайт (90%)
Размер потока оригинала : 21,1 Мбайт (90%)
Язык : English
Дата кодирования : UTC 2013-08-31 17:52:18
Дата пометки : UTC 2013-08-31 17:52:18
mdhd_Duration : 306800

Аудио
Идентификатор : 2
Формат : AAC
Формат/Информация : Advanced Audio Codec
Профиль формата : LC
Идентификатор кодека : 40
Вид битрейта : Переменный
Битрейт : 61,7 Кбит/сек
Максимальный битрейт : 172 Кбит/сек
Каналы : 2 канала
Расположение каналов : Front: L R
Частота : 44,1 КГц
Метод сжатия : С потерями
Размер потока : 2,26 Мбайт (10%)
Размер потока оригинала : 2,26 Мбайт (10%)
Язык : English
Дата кодирования : UTC 2013-08-31 17:52:18
Дата пометки : UTC 2013-08-31 17:52:18
mdhd_Duration : 306828

Качество: SWF
Формат: MP4
Видео кодек: AVC
Аудио кодек: AAC
Видео: MPEG4 (H264) 1024x648;15,000 кадров/сек
Аудио: AAC 44100Hz stereo 1411kbps

Вне форума Profile PM
Показать сообщения:    
Ответить на тему

Текущее время: 14-Ноя 22:04

Часовой пояс: GMT + 3



Вы не можете начинать темы
Вы не можете отвечать на сообщения
Вы не можете редактировать свои сообщения
Вы не можете удалять свои сообщения
Вы не можете голосовать в опросах
Вы не можете прикреплять файлы к сообщениям
Вы не можете скачивать файлы
Рейтинг торрент трекеров - UpTracker.ru Анализ веб сайта Яндекс.Метрика
службы мониторинга серверов