Loading...
Error

Ёлки 3 (Ольга Харина, Дмитрий Киселёв, Александр Котт) [2013 г., Комедия, DVD5]

Ответить на тему
 
Автор Сообщение

Theseus

Стаж: 9 лет

Сообщений: 5003

Режим только чтение: НЕТ

post 21-Янв-2014 19:43

Quote


Ёлки 3

Год выпуска: 2013
Страна Россия
Жанр: Комедия
Продолжительность: 01:32:58
Режиссер: Ольга Харина, Дмитрий Киселёв, Александр Котт
В ролях: Иван Ургант, Сергей Светлаков, Гоша Куценко, Валентин Гафт, Татьяна Догилева, Пётр Фёдоров, Анна Чиповская, Мария Шукшина, Константин Хабенский, Антон Богданов
Описание: Спустя два года они снова с нами: любимые герои «Ёлок» в самых невероятных новогодних историях. Боря и Женя, чьи годовалые дети в канун праздника доведут друзей до психушки. Маленькая девочка Настя, чьи родители разлучат ее влюбленных друг в друга собак. Лыжник и сноубордист в самой экстремальной в их жизни гонке — от военкома. И профессор из Екатеринбурга Андрей, чья любвеобильность вновь не доведет его до добра, а только до проруби в минус 30. Под бой курантов этих и новых героев «Ёлок» объединит бумеранг добра. Завершая свой круг, он заслуженно вернётся к каждому, кто его однажды запустил — кому улыбками и объятиями любимых и друзей, кому — праздничным настроением и соответствующим градусу состоянием, а кому-то… телефоном в холодце!

Качество: DVD5 (Исходник => DVD9)
Формат: DVDVideo
Видео кодек: MPEG2
Аудио кодек: AC3
Видео: MPEG 2, 720x576 (16:9), 25.000 fps, 6082 Kbps (0.587 bit/pixel)
Аудио: AC-3, 48.0 KHz, 6 ch, 448 Kbps, CBR
Субтитры: Английские
Меню: Статичное
Бонусы и дополнения: Нет

Код:

Title: Elki.3.2013.DVD5
Size: 4.37 Gb ( 4 578 758,00 KBytes ) - DVD-5
Enabled regions: 1, 2, 3, 4, 5, 6, 7, 8

VTS_01 :
  Play Length: 00:00:00
  Video: PAL 4:3 (720x576) VBR
  Audio:
      Not specified (Dolby AC3, 2 ch)

VTS_02 :
  Play Length: 00:00:00
  Video: PAL 16:9 (720x576) VBR, Auto Letterboxed
  Audio:
      Not specified (Dolby AC3, 2 ch)

VTS_03 :
  Play Length: 00:00:01
  Video: PAL 16:9 (720x576) VBR, Auto Letterboxed
  Audio:
      Russian (Dolby AC3, 2 ch)
  Subtitles:
      English

VTS_04 :
  Play Length: 01:32:58
  Video: PAL 16:9 (720x576) VBR, Auto Letterboxed
  Audio:
      Russian (Dolby AC3, 6 ch)
  Subtitles:
      English

VTS_05 :
  Play Length: 00:00:00
  Video: PAL 16:9 (720x576) VBR, Auto Letterboxed
  Audio:
      Russian (Dolby AC3, 2 ch)
  Subtitles:
      English

* Menus Information *

VIDEO_TS Menu
Video:
      NTSC 4:3 (720x480) VBR
      Auto Pan&Scan, Auto Letterboxed
English Language Unit :
      Title Menu

VTS_01 Menu
Video:
      PAL 16:9 (720x576) VBR
      Auto Letterboxed
Audio:
      Not specified (Dolby AC3, 2 ch)
English Language Unit :
      Root Menu
      Chapter (PTT) Menu

VTS_02 Menu
Video:
      NTSC 4:3 (720x480) VBR
      Auto Pan&Scan, Auto Letterboxed
English Language Unit :
      Root Menu
      Chapter (PTT) Menu

VTS_03 Menu
Video:
      NTSC 4:3 (720x480) VBR
      Auto Pan&Scan, Auto Letterboxed
English Language Unit :
      Root Menu
      Chapter (PTT) Menu

VTS_04 Menu
Video:
      NTSC 4:3 (720x480) VBR
      Auto Pan&Scan, Auto Letterboxed
English Language Unit :
      Root Menu
      Chapter (PTT) Menu

VTS_05 Menu
Video:
      NTSC 4:3 (720x480) VBR
      Auto Pan&Scan, Auto Letterboxed
English Language Unit :
      Root Menu
      Chapter (PTT) Menu

Код:

Общее
Полное имя                               : D:\Elki.3.2013.DVD5\VIDEO_TS\VTS_04_1.VOB
Формат                                   : MPEG-PS
Размер файла                             : 1024 Мбайт
Продолжительность                        : 21 м.
Режим общего битрейта                    : Переменный
Общий поток                              : 6663 Кбит/сек

Видео
Идентификатор                            : 224 (0xE0)
Формат                                   : MPEG Video
Версия формата                           : Version 2
Профиль формата                          : Main@Main
Параметр BVOP формата                    : Да
Параметр матрицы формата                 : Выборочная
Параметр GOP формата                     : Variable
Продолжительность                        : 21 м.
Вид битрейта                             : Переменный
Битрейт                                  : 6082 Кбит/сек
Максимальный битрейт                     : 9000 Кбит/сек
Ширина                                   : 720 пикселей
Высота                                   : 576 пикселей
Соотношение сторон                       : 16:9
Частота кадров                           : 25,000 кадров/сек
Стандарт вещания                         : PAL
Цветовое пространство                    : YUV
Субдискретизация насыщенности            : 4:2:0
Битовая глубина                          : 8 бит
Тип развёртки                            : Прогрессивная
Порядок развёртки                        : Нижнее поле первое
Метод сжатия                             : С потерями
Бит/(Пиксели*Кадры)                      : 0.587
Временной код первого кадра              : 00:00:00:00
Оригинал временного кода                 : Group of pictures header
Размер потока                            : 935 Мбайт (91%)

Аудио
Идентификатор                            : 189 (0xBD)-128 (0x80)
Формат                                   : AC-3
Формат/Информация                        : Audio Coding 3
Расширение режима                        : CM (complete main)
Параметр Endianness формата              : Big
Режим смешивания                         : DVD-Video
Продолжительность                        : 21 м.
Вид битрейта                             : Постоянный
Битрейт                                  : 448 Кбит/сек
Каналы                                   : 6 каналов
Расположение каналов                     : Front: L C R, Side: L R, LFE
Частота                                  : 48,0 КГц
Битовая глубина                          : 16 бит
Метод сжатия                             : С потерями
Размер потока                            : 68,8 Мбайт (7%)

Текст #1
Идентификатор                            : 189 (0xBD)-32 (0x20)
Формат                                   : RLE
Формат/Информация                        : Run-length encoding
Режим смешивания                         : DVD-Video
Продолжительность                        : 21 м.
Задержка видео                           : 280 мс.

Текст #2
Идентификатор                            : 189 (0xBD)-33 (0x21)
Формат                                   : RLE
Формат/Информация                        : Run-length encoding
Режим смешивания                         : DVD-Video
Продолжительность                        : 21 м.
Задержка видео                           : 280 мс.

Меню

Меню

Фильм


Скрыт Profile PM
Показать сообщения:    
Ответить на тему

Текущее время: 21-Авг 17:20

Часовой пояс: GMT + 3



Вы не можете начинать темы
Вы не можете отвечать на сообщения
Вы не можете редактировать свои сообщения
Вы не можете удалять свои сообщения
Вы не можете голосовать в опросах
Вы не можете прикреплять файлы к сообщениям
Вы не можете скачивать файлы
Рейтинг торрент трекеров - UpTracker.ru Анализ веб сайта Яндекс.Метрика
службы мониторинга серверов