Loading...
Error

Концерт Елены Ваенги в Кремле [2016, творческий вечер, концерт, HDTVRip]

Ответить на тему
 
Автор Сообщение

O.S.A.

Стаж: 1 год 10 месяцев

Сообщений: 190

СССР

Режим только чтение: НЕТ

post 07-Фев-2016 11:38

Quote



Концерт Елены Ваенги в Кремле


  • Год выпуска: 2016
  • Страна: Россия / «Первый канал»
  • Жанр: творческий вечер, концерт
  • Продолжительность: 01:26:14
  • Перевод: Не требуется

  • Исполнитель: Елена Ваенга

  • Ее песни знакомы каждому в нашей стране. В эту субботу Первый канал представляет вашему вниманию телевизионную версию сольного концерта Елены Ваенги, в котором прозвучат композиции: "Сердце напополам", "Курю", "Нева", "Шопен", "Остановка", "Мишина песня", "Аэропорт", "Невеста" и другие.

  • Премьера в России: 6 февраля 2016 (Первый канал)


  • Качество видео: HDTVRip
  • Формат видео: AVI
  • Видео кодек: XviD
  • Аудио кодек: AC3
  • Видео: 720x400 (1.80:1), 25.000 fps, XviD MPEG-4, ~2000 kbps avg, 0.278 bit/pixel
  • Аудио: 48.0 kHz, AC3 Dolby Digital, 2/0 (L,R) ch, ~192.00 kbps avg
  • Субтитры: нет


General
Complete name : W:\O.S.A.\Торренты\Завершенные торренты\Koncert Eleny Vaengi.HDTVRip.GeneralFilm.avi
Format : AVI
Format/Info : Audio Video Interleave
File size : 1.33 GiB
Duration : 1h 26mn
Overall bit rate : 2 200 Kbps
Writing application : VirtualDubMod 1.5.10.3 (build 2550/release)
Writing library : VirtualDubMod build 2550/release

Video
ID : 0
Format : MPEG-4 Visual
Format profile : Advanced Simple@L5
Format settings, BVOP : 1
Format settings, QPel : No
Format settings, GMC : No warppoints
Format settings, Matrix : Custom
Codec ID : XVID
Codec ID/Hint : XviD
Duration : 1h 26mn
Bit rate : 1 998 Kbps
Width : 720 pixels
Height : 400 pixels
Display aspect ratio : 16:9
Frame rate : 25.000 fps
Color space : YUV
Chroma subsampling : 4:2:0
Bit depth : 8 bits
Scan type : Progressive
Compression mode : Lossy
Bits/(Pixel*Frame) : 0.278
Stream size : 1.20 GiB (91%)
Writing library : XviD 73

Audio
ID : 1
Format : AC-3
Format/Info : Audio Coding 3
Mode extension : CM (complete main)
Codec ID : 2000
Duration : 1h 26mn
Bit rate mode : Constant
Bit rate : 192 Kbps
Channel(s) : 2 channels
Channel positions : Front: L R
Sampling rate : 48.0 KHz
Bit depth : 16 bits
Compression mode : Lossy
Stream size : 118 MiB (9%)
Alignment : Split accross interleaves
Interleave, duration : 40 ms (1.00 video frame)
Interleave, preload duration : 500 ms







_________________
===============================
IGNOSCITO SAEPE ALTERI, NUNQUAM TIBI
Вне форума Profile PM

bereza2164

Стаж: 5 лет 10 месяцев

Сообщений: 9

Украина

Режим только чтение: НЕТ

post 03-Июн-2016 19:20 (спустя 3 месяца 25 дней)

Quote

Благодарю!
Вне форума Profile PM
Показать сообщения:    
Ответить на тему

Текущее время: 20-Ноя 00:15

Часовой пояс: GMT + 3



Вы не можете начинать темы
Вы не можете отвечать на сообщения
Вы не можете редактировать свои сообщения
Вы не можете удалять свои сообщения
Вы не можете голосовать в опросах
Вы не можете прикреплять файлы к сообщениям
Вы не можете скачивать файлы
Рейтинг торрент трекеров - UpTracker.ru Анализ веб сайта Яндекс.Метрика
службы мониторинга серверов