Loading...
Error

Вышибала (Серии 1—16 из 16) (Сергей Крутин) [2016, криминальная драма, HDTVRip]

Ответить на тему
 
Автор Сообщение

O.S.A.

Стаж: 2 года 10 месяцев

Сообщений: 190

СССР

Режим только чтение: НЕТ

post 11-Июн-2016 00:41

Quote



Вышибала


  • Год выпуска: 2016
  • Страна: Россия / «Пирамида»
  • Жанр: криминальная драма
  • Продолжительность: 16 х ~00:45:00
  • Перевод: Не требуется

  • Режиссёр: Сергей Крутин

  • В ролях: Дмитрий Марьянов, Анастасия Панина, Гела Месхи, Мария Машкова, Александр Наумов, Владимир Фекленко, Надежда Маркина, Константин Юшкевич, Ян Цапник, Семен Трескунов...

  • Криминальная драма о человеке, который после длительного тюремного заключения возвращается в родной город. Он хочет разобраться со своим прошлым и вернуть себе любимую, которая теперь живет с его врагом.
    15 лет назад юный самбист Александр Чижов (Гела Месхи) по прозвищу Чижик попал в преступную группировку. Лидер банды Гуня — Николай Регунов (Дмитрий Марьянов) — сразу обратил внимание на спортсмена и стал поддерживать его. Чижик был искренне предан Гуне и компании. Он оставил спорт, у него появились деньги, статус и любимая девушка Наташа (Анастасия Панина).
    Все изменилось, когда одна из бандитских сходок закончилась стрельбой. Защищаясь, Гуня убил троих. Попав в оцепление полиции, Чижик попросил Гуню отдать ему пистолет, чтобы взять вину на себя…
    Отсидев срок и выйдя на свободу, Чижик узнает, что теперь Гуня – влиятельный бизнесмен и хозяин города, а его любимая Наташа стала женой и компаньоном Регунова. Вместе они воспитывают сына, отцом которого является Чижик. В честь возвращения друга Регунов устраивает шикарный прием. На вечеринке Чижик и Наташа встречаются и понимают, что прошлое никуда не делось. «Чижик-Пыжик, где ты был?» — вырывается у Наташи их старая присказка, и чувства вспыхивают с новой силой…
    Чижик устраивается в коллекторское бюро «пугалом для должников». Благодаря смекалке и образу брутального вышибалы он приобретает репутацию умелого переговорщика. Но внезапно его втягивают в войну между Гуней и начальником местного УВД Головачом (Александр Наумов).

  • Премьера в России: 6 июня 2016 (НТВ)




  • Качество видео: HDTVRip
  • Формат видео: AVI
  • Видео кодек: XviD
  • Аудио кодек: АС3
  • Видео: 720x400 (1.80:1), 25.000 fps, XviD MPEG-4, ~1500 kbps avg, 0.208 bit/pixel
  • Аудио: 48.0 kHz, AC3 Dolby Digital, 2/0 (L,R) ch, ~192.00 kbps avg
  • Субтитры: нет


General
Complete name : W:\O.S.A.\Торренты\Завершенные торренты\Vychibala.2016.HDTVRip.Files-x\01.Vychibala.2016.HDTVRip.Files-x.avi
Format : AVI
Format/Info : Audio Video Interleave
File size : 550 MiB
Duration : 45mn 16s
Overall bit rate : 1 699 Kbps
Writing application : VirtualDubModRus 1.5.10.2 (build 2542/release)
Writing library : VirtualDubMod build 2542/release

Video
ID : 0
Format : MPEG-4 Visual
Format profile : Advanced Simple@L5
Format settings, BVOP : 1
Format settings, QPel : No
Format settings, GMC : No warppoints
Format settings, Matrix : Custom
Codec ID : XVID
Codec ID/Hint : XviD
Duration : 45mn 16s
Bit rate : 1 498 Kbps
Width : 720 pixels
Height : 400 pixels
Display aspect ratio : 16:9
Frame rate : 25.000 fps
Color space : YUV
Chroma subsampling : 4:2:0
Bit depth : 8 bits
Scan type : Progressive
Compression mode : Lossy
Bits/(Pixel*Frame) : 0.208
Stream size : 485 MiB (88%)
Writing library : XviD 73

Audio
ID : 1
Format : AC-3
Format/Info : Audio Coding 3
Mode extension : CM (complete main)
Codec ID : 2000
Duration : 45mn 16s
Bit rate mode : Constant
Bit rate : 192 Kbps
Channel(s) : 2 channels
Channel positions : Front: L R
Sampling rate : 48.0 KHz
Bit depth : 16 bits
Compression mode : Lossy
Stream size : 62.2 MiB (11%)
Alignment : Split accross interleaves
Interleave, duration : 40 ms (1.00 video frame)
Interleave, preload duration : 500 ms







_________________
===============================
IGNOSCITO SAEPE ALTERI, NUNQUAM TIBI
Вне форума Profile PM
Показать сообщения:    
Ответить на тему

Текущее время: 11-Дек 14:03

Часовой пояс: GMT + 3



Вы не можете начинать темы
Вы не можете отвечать на сообщения
Вы не можете редактировать свои сообщения
Вы не можете удалять свои сообщения
Вы не можете голосовать в опросах
Вы не можете прикреплять файлы к сообщениям
Вы не можете скачивать файлы
Рейтинг торрент трекеров - UpTracker.ru Анализ веб сайта Яндекс.Метрика
службы мониторинга серверов