Loading...
Error

Братство клинков 2: Адское поле битвы / Xiu chun dao II: xiu luo zhan chang (Лу Ян) [2017 г., боевик, история, WEBRip 2160p] L2 | East Dream

Ответить на тему
 
Автор Сообщение

Theseus

Стаж: 10 лет

Сообщений: 5013

Режим только чтение: НЕТ

post 06-Сен-2017 15:52

Quote

Братство клинков 2: Адское поле битвы / Xiu chun dao II: xiu luo zhan chang

Год выпуска: 2017
Страна: Китай
Жанр: боевик, история
Продолжительность: 01:59:58
Перевод: Любительский (двухголосый закадровый) [East Dream]
Субтитры: китайские, английские [вшитые неотключаемые]

В ролях: Чан Чэнь, Ян Ми, Чжан И, Цзинь Шицзя, Лэй Цзяинь, Синь Чжилэй …
Режиссёр: Лу Ян

Описание: Действия фильма происходят во времена династии Мин, главный герой Шэнь Лянь должен разгадать тайну убийства евнуха Го из сыскной службы, но капнув чуть глубже понимает, что не всё так просто... Евнух Го и повстанцы Дунлина затеяли убийство Императора, что по тем временам было не редкостью, но наш доблестный капитан лейб-гвардии Шэнь Лянь, узнаёт про организатора сего покушения, это оказывается художник Бэй Чжэй из ближайшей деревни, и чтоб распутать это дело Шэнь Ляню потребуется много сил, ибо враги повсюду...


Качество: WEBRip 2160p
Формат: MKV
Видео кодек: H.264
Аудио кодек: AC3/AAC
Видео: AVC, 3840x1440 , 24.000 fps, 6126 Kbps (0.046 bit/pixel)
Аудио 1: AC3, 48.0 KHz, 192 Kbps, 2 ch | Russian
Аудио 2: HE-AAC(LC), 48.0 KHz, 63 Kbps, 2 ch | Chinese

Рекламы нет !
Общее
Уникальный идентификатор : 239509399079039249030458397104076441035 (0xB42FD515DCE73F9B91FF1A2AD0E345CB)
Полное имя : Brotherhood.of.Blades.II.2017.WEB-DL.2160P.H264
Формат : Matroska
Версия формата : Version 4 / Version 2
Размер файла : 5,35 Гбайт
Продолжительность : 1 ч. 59 м.
Общий поток : 6383 Кбит/сек
Дата кодирования : UTC 2017-09-05 12:24:47
Программа кодирования : mkvmerge v8.3.0 ('Over the Horizon') 64bit
Библиотека кодирования : libebml v1.3.1 + libmatroska v1.4.2

Видео
Идентификатор : 1
Формат : AVC
Формат/Информация : Advanced Video Codec
Профиль формата : High @ L5
Параметр CABAC формата : Да
Параметр ReFrames формата : 3 кадра
Идентификатор кодека : V_MPEG4/ISO/AVC
Продолжительность : 1 ч. 59 м.
Битрейт : 6126 Кбит/сек
Ширина : 3840 пикселей
Высота : 1440 пикселей
Соотношение сторон : 2,667
Режим частоты кадров : Переменный
Частота кадров : 24,000 кадра/сек
Цветовое пространство : YUV
Субдискретизация насыщенности : 4:2:0
Битовая глубина : 8 бит
Тип развёртки : Прогрессивная
Бит/(Пиксели*Кадры) : 0.046
Размер потока : 5,13 Гбайт (96%)
Библиотека кодирования : qiyi . com vtc-test
Default : Да
Forced : Нет
Цветовой диапазон : Limited
Основные цвета : BT.709
Характеристики трансфера : BT.709
Коэффициенты матрицы : BT.709

Аудио #1
Идентификатор : 2
Формат : AC-3
Формат/Информация : Audio Coding 3
Расширение режима : CM (complete main)
Параметр Endianness формата : Big
Идентификатор кодека : A_AC3
Продолжительность : 1 ч. 59 м.
Вид битрейта : Постоянный
Битрейт : 192 Кбит/сек
Каналы : 2 канала
Расположение каналов : Front: L R
Частота : 48,0 КГц
Частота кадров : 31,250 кадров/сек (1536 spf)
Битовая глубина : 16 бит
Метод сжатия : С потерями
Задержка видео : -83 мс.
Размер потока : 165 Мбайт (3%)
Язык : Russian
Default : Да
Forced : Нет

Аудио #2
Идентификатор : 3
Формат : AAC
Формат/Информация : Advanced Audio Codec
Профиль формата : HE-AAC / LC
Идентификатор кодека : A_AAC
Продолжительность : 1 ч. 59 м.
Битрейт : 63,0 Кбит/сек
Каналы : 2 канала
Расположение каналов : Front: L R
Частота : 44,1 КГц / 22,05 КГц
Частота кадров : 21,533 кадра/сек (1024 spf)
Метод сжатия : С потерями
Задержка видео : -83 мс.
Размер потока : 54,0 Мбайт (1%)
Язык : Chinese
Default : Нет
Forced : Нет




Скрыт Profile PM
Показать сообщения:    
Ответить на тему

Текущее время: 20-Ноя 07:24

Часовой пояс: GMT + 3



Вы не можете начинать темы
Вы не можете отвечать на сообщения
Вы не можете редактировать свои сообщения
Вы не можете удалять свои сообщения
Вы не можете голосовать в опросах
Вы не можете прикреплять файлы к сообщениям
Вы не можете скачивать файлы
Рейтинг торрент трекеров - UpTracker.ru Анализ веб сайта Яндекс.Метрика
службы мониторинга серверов