Loading...
Error

Джунгли / Jungle (Грег МакЛин) [2017, триллер, драма, приключения, BDRip 1080p] | DUB [iTunes] | AVO

Ответить на тему
 
Автор Сообщение

Theseus

Стаж: 8 лет 2 месяца

Сообщений: 4132

Режим только чтение: НЕТ

post 06-Дек-2017 21:43

Quote

Джунгли / Jungle

Год выхода: 2017
Страна: США
Жанр: триллер, драма, приключения
Продолжительность: 01:55:22
Перевод: Профессиональный (полное дублирование) iTunes | авторский (одноголосый, закадровый) М.Яроцкий
Субтитры: Русские, Английские
Режиссер: Грег МакЛин
В ролях: Дэниэл Рэдклифф, Томас Кречман, Алекс Расселл, Джоэль Джексон, Лили Салливан, Ясмин Кассим, Яцек Коман, Луис Лопез, Энджи Милликен
О фильме: Группа друзей отправляется в непроходимые джунгли Боливии в поисках экзотических впечатлений. Однако когда проводник исчезает и приятели остаются один на один с дикой природой, путешествие, начавшееся как забавное приключение, превращается в борьбу за выживание.

Качество: BDRip 1080p
Формат: MKV
Видео кодек: x.264
Аудио кодек: AC3/DTS
Видео: MPEG-4 AVC, 1920x800, 23.976 fps, 9578 Кbps
Аудио 1: 48 kHz, AC3, 6 ch, 384 kbps | RUS (iTunes)
Аудио 2: 48 kHz, AC3, 6 ch, 640 kbps | RUS (М.Яроцкий)
Аудио 3: 48 kHz, DTS, 6 ch, 1509 kbps | ENG
Общее
Уникальный идентификатор : 237256449672287004696716308365771115790 (0xB27DEE1A872EF25A9DA338232CCD8D0E)
Полное имя : Jungle.2017.BDRip.1080p.mkv
Формат : Matroska
Версия формата : Version 4 / Version 2
Размер файла : 9,76 Гбайт
Продолжительность : 1 ч. 55 м.
Общий поток : 12,1 Мбит/сек
Дата кодирования : UTC 2017-12-03 21:17:12
Программа кодирования : mkvmerge v17.0.0 ('Be Ur Friend') 64-bit
Библиотека кодирования : libebml v1.3.5 + libmatroska v1.4.8

Видео
Идентификатор : 1
Формат : AVC
Формат/Информация : Advanced Video Codec
Профиль формата : High@L4.1
Настройки формата : CABAC / 5 Ref Frames
Параметр CABAC формата : Да
Параметр RefFrames формата : 5 кадров
Идентификатор кодека : V_MPEG4/ISO/AVC
Продолжительность : 1 ч. 55 м.
Битрейт : 9578 Кбит/сек
Ширина : 1920 пикселей
Высота : 800 пикселей
Соотношение сторон : 2,40:1
Режим частоты кадров : Постоянный
Частота кадров : 23,976 (24000/1001) кадра/сек
Цветовое пространство : YUV
Субдискретизация насыщенности : 4:2:0
Битовая глубина : 8 бит
Тип развёртки : Прогрессивная
Бит/(Пиксели*Кадры) : 0.260
Размер потока : 7,72 Гбайт (79%)
Библиотека кодирования : x264 core 152 r2851+45 9658d1a 7mod [8-bit@all X86_64]
Настройки программы : cabac=1 / ref=5 / deblock=1:-3:-3 / analyse=0x3:0x113 / me=umh / subme=11 / psy=1 / fade_compensate=0.00 / psy_rd=1.05:0.10 / mixed_ref=1 / me_range=48 / chroma_me=1 / trellis=2 / 8x8dct=1 / cqm=0 / deadzone=11,6 / fast_pskip=0 / chroma_qp_offset=-3 / threads=12 / lookahead_threads=3 / sliced_threads=0 / nr=0 / decimate=0 / interlaced=0 / bluray_compat=0 / constrained_intra=0 / fgo=0 / bframes=10 / b_pyramid=2 / b_adapt=2 / b_bias=0 / direct=3 / weightb=1 / open_gop=0 / weightp=2 / keyint=250 / keyint_min=23 / scenecut=40 / intra_refresh=0 / rc_lookahead=60 / rc=crf / mbtree=0 / crf=19.0000 / qcomp=0.70 / qpmin=0:0:0 / qpmax=32:32:32 / qpstep=4 / vbv_maxrate=40000 / vbv_bufsize=30000 / crf_max=0.0 / nal_hrd=none / filler=0 / ip_ratio=1.30 / pb_ratio=1.20 / aq=4:0.85 / aq-sensitivity=10.00 / aq-factor=1.00:1.00:1.00 / aq2=0 / aq3=0
Язык : English
Default : Да
Forced : Нет
Цветовой диапазон : Limited
Основные цвета : BT.709
Характеристики трансфера : BT.709
Коэффициенты матрицы : BT.709

Аудио #1
Идентификатор : 2
Формат : AC-3
Формат/Информация : Audio Coding 3
Идентификатор кодека : A_AC3
Продолжительность : 1 ч. 55 м.
Вид битрейта : Постоянный
Битрейт : 384 Кбит/сек
Каналы : 6 каналов
Расположение каналов : Front: L C R, Side: L R, LFE
Частота : 48,0 КГц
Частота кадров : 31,250 кадров/сек (1536 SPF)
Битовая глубина : 16 бит
Метод сжатия : С потерями
Размер потока : 317 Мбайт (3%)
Заголовок : DUB | iTunes
Язык : Russian
ServiceKind/String : Complete Main
Default : Да
Forced : Нет

Аудио #2
Идентификатор : 3
Формат : AC-3
Формат/Информация : Audio Coding 3
Идентификатор кодека : A_AC3
Продолжительность : 1 ч. 55 м.
Вид битрейта : Постоянный
Битрейт : 640 Кбит/сек
Каналы : 6 каналов
Расположение каналов : Front: L C R, Side: L R, LFE
Частота : 48,0 КГц
Частота кадров : 31,250 кадров/сек (1536 SPF)
Битовая глубина : 16 бит
Метод сжатия : С потерями
Размер потока : 528 Мбайт (5%)
Заголовок : AVO (М.Яроцкий)
Язык : Russian
ServiceKind/String : Complete Main
Default : Нет
Forced : Нет

Аудио #3
Идентификатор : 4
Формат : DTS
Формат/Информация : Digital Theater Systems
Идентификатор кодека : A_DTS
Продолжительность : 1 ч. 55 м.
Вид битрейта : Постоянный
Битрейт : 1509 Кбит/сек
Каналы : 6 каналов
Расположение каналов : Front: L C R, Side: L R, LFE
Частота : 48,0 КГц
Частота кадров : 93,750 кадра/сек (512 SPF)
Битовая глубина : 16 бит
Метод сжатия : С потерями
Размер потока : 1,22 Гбайт (12%)
Язык : English
Default : Нет
Forced : Нет

Текст #1
Идентификатор : 5
Формат : UTF-8
Идентификатор кодека : S_TEXT/UTF8
Идентификатор кодека/Информация : UTF-8 Plain Text
Продолжительность : 1 ч. 49 м.
Битрейт : 63 бит/сек
ElementCount : 1102
Размер потока : 51,0 Кбайт (0%)
Язык : Russian
Default : Нет
Forced : Нет

Текст #2
Идентификатор : 6
Формат : UTF-8
Идентификатор кодека : S_TEXT/UTF8
Идентификатор кодека/Информация : UTF-8 Plain Text
Продолжительность : 1 ч. 49 м.
Битрейт : 33 бит/сек
ElementCount : 1073
Размер потока : 27,3 Кбайт (0%)
Язык : English
Default : Нет
Forced : Нет

Меню
00:00:00.000 : en:Chapter 01
00:09:58.848 : en:Chapter 02
00:19:46.602 : en:Chapter 03
00:29:15.378 : en:Chapter 04
00:38:54.415 : en:Chapter 05
00:49:27.130 : en:Chapter 06
00:58:30.506 : en:Chapter 07
01:07:49.690 : en:Chapter 08
01:16:25.330 : en:Chapter 09
01:24:54.464 : en:Chapter 10
01:32:54.610 : en:Chapter 11
01:44:37.437 : en:Chapter 12
01:55:21.539 : en:Chapter 13



Скрыт Profile PM
Показать сообщения:    
Ответить на тему

Текущее время: 15-Дек 13:12

Часовой пояс: GMT + 3



Вы не можете начинать темы
Вы не можете отвечать на сообщения
Вы не можете редактировать свои сообщения
Вы не можете удалять свои сообщения
Вы не можете голосовать в опросах
Вы не можете прикреплять файлы к сообщениям
Вы не можете скачивать файлы
Рейтинг торрент трекеров - UpTracker.ru Анализ веб сайта Яндекс.Метрика
службы мониторинга серверов