Loading...
Error

Дракула / Dracula Untold (Гари Шор) [2014 г., ужасы, фэнтези, боевик, драма, BDRemux 2160p] HEVC | DUB (Лицензия)

Ответить на тему
 
Автор Сообщение

Theseus

Стаж: 8 лет 7 месяцев

Сообщений: 4418

Режим только чтение: НЕТ

post 09-Дек-2017 15:09

Quote


Дракула / Dracula Untold

Год выпуска: 2014
Страна: США
Жанр: фантастика, боевик, драма
Продолжительность: 01:32:08
Перевод: Профессиональный (полное дублирование) [Лицензия]
Субтитры: Русские, английские
Режиссер: Гари Шор
В ролях: Люк Эванс, Сара Гадон, Доминик Купер, Арт Паркинсон, Чарльз Дэнс, Дайармейд Мерта, Пол Кэй, Уильям Хьюстон, Ной Хантли, Ронан Вайберт
Описание: Влад Дракула был величайшим правителем, доблестным воином и страстным мужчиной. Но судьба свела его с врагом, коварство которого не знало границ. И тогда Дракула заключил сделку - нечеловеческая сила в обмен на самую малость - бессмертную душу... .

Качество: BDRemux 2160p
Контейнер: MKV
Видео кодек: H.265
Аудио кодек: AC3/DTS-HD MA
Видео: MPEG-H HEVC HDR Video, H.265, 3840x2160, 71.5 Mbit/s, 23.976 fps
Аудио #1: AC-3, 48.0 KHz, 6 ch, 768 Kbps, CBR (RUS)
Аудио #2: DTS-HD MA, 48.0 KHz, 8 ch, 5212 Kbps, CBR (ENG)
General
Unique ID : 237910816683146655633264500888945034278 (0xB2FBF4E35E5C539381944DB283FC0426)
Complete name : G:VideoSSDDracula.Untold.2014.D.BDREMUX.2160p.4K.UltraHD.HEVC.HDR.ExKinoRay.mkv
Format : Matroska
Format version : Version 4 / Version 2
File size : 49.9 GiB
Duration : 1 h 32 min
Overall bit rate : 77.5 Mb/s
Movie name : Dracula Untold 2014 from ExKinoRay
Encoded date : UTC 2017-12-07 15:10:26
Writing application : mkvmerge v18.0.0 ('Apricity') 64-bit
Writing library : libebml v1.3.5 + libmatroska v1.4.8

Video
ID : 1
Format : HEVC
Format/Info : High Efficiency Video Coding
Format profile : Main 10@L5.1@High
Codec ID : V_MPEGH/ISO/HEVC
Duration : 1 h 32 min
Bit rate : 71.5 Mb/s
Width : 3 840 pixels
Height : 2 160 pixels
Display aspect ratio : 16:9
Frame rate mode : Constant
Frame rate : 23.976 (24000/1001) FPS
Color space : YUV
Chroma subsampling : 4:2:0 (Type 2)
Bit depth : 10 bits
Bits/(Pixel*Frame) : 0.360
Stream size : 46.1 GiB (92%)
Language : English
Default : Yes
Forced : No
Color range : Limited
Color primaries : BT.2020
Transfer characteristics : PQ
Matrix coefficients : BT.2020 non-constant
Mastering display color pri : R: x=0.680000 y=0.320000, G: x=0.265000 y=0.690000, B: x=0.150000 y=0.060000, White point: x=0.312700 y=0.329000
Mastering display luminance : min: 0.0000 cd/m2, max: 1000.0000 cd/m2

Audio #1
ID : 2
Format : DTS
Format/Info : Digital Theater Systems
Mode : 16
Format settings, Endianness : Big
Codec ID : A_DTS
Duration : 1 h 32 min
Bit rate mode : Constant
Bit rate : 768 kb/s
Channel(s) : 6 channels
Channel positions : Front: L C R, Side: L R, LFE
Sampling rate : 48.0 kHz
Frame rate : 93.750 FPS (512 SPF)
Bit depth : 24 bits
Compression mode : Lossy
Stream size : 506 MiB (1%)
Title : Dub [License]
Language : Russian
Default : Yes
Forced : No

Audio #2
ID : 3
Format : DTS
Format/Info : Digital Theater Systems
Format profile : X / MA / Core
Mode : 16
Format settings, Endianness : Big
Codec ID : A_DTS
Duration : 1 h 32 min
Bit rate mode : Variable / Variable / Constant
Bit rate : 5 212 kb/s / 5 212 kb/s / 1 509 kb/s
Channel(s) : Object Based / 8 channels / 6 channels
Channel positions : Object Based / Front: L C R, Side: L R, Back: L R, LFE / Front: L C R, Side: L R, LFE
Sampling rate : / 48.0 kHz / 48.0 kHz
Frame rate : 93.750 FPS (512 SPF)
Bit depth : / 24 bits / 24 bits
Compression mode : / Lossless / Lossy
Stream size : 3.36 GiB (7%)
Title : Original
Language : English
Default : No
Forced : No

Text #1
ID : 4
Format : UTF-8
Codec ID : S_TEXT/UTF8
Codec ID/Info : UTF-8 Plain Text
Duration : 1 h 24 min
Bit rate : 50 b/s
Count of elements : 624
Stream size : 30.9 KiB (0%)
Title : Full
Language : Russian
Default : No
Forced : No

Text #2
ID : 5
Format : UTF-8
Codec ID : S_TEXT/UTF8
Codec ID/Info : UTF-8 Plain Text
Duration : 1 h 24 min
Bit rate : 31 b/s
Count of elements : 757
Stream size : 19.6 KiB (0%)
Title : Full
Language : English
Default : No
Forced : No

Text #3
ID : 6
Format : UTF-8
Codec ID : S_TEXT/UTF8
Codec ID/Info : UTF-8 Plain Text
Duration : 1 h 24 min
Bit rate : 37 b/s
Count of elements : 956
Stream size : 22.9 KiB (0%)
Title : SDH
Language : English
Default : No
Forced : No

Menu
00:00:00.000 : en:Chapter 01
00:04:07.288 : en:Chapter 02
00:07:20.565 : en:Chapter 03
00:11:32.817 : en:Chapter 04
00:16:30.698 : en:Chapter 05
00:22:53.663 : en:Chapter 06
00:30:23.446 : en:Chapter 07
00:34:16.763 : en:Chapter 08
00:38:57.043 : en:Chapter 09
00:43:00.369 : en:Chapter 10
00:47:03.737 : en:Chapter 11
00:53:16.735 : en:Chapter 12
00:57:39.831 : en:Chapter 13
01:00:47.310 : en:Chapter 14
01:04:30.032 : en:Chapter 15
01:09:12.189 : en:Chapter 16
01:12:47.613 : en:Chapter 17
01:17:11.877 : en:Chapter 18
01:21:52.657 : en:Chapter 19
01:25:02.555 : en:Chapter 20



Скрыт Profile PM
Показать сообщения:    
Ответить на тему

Текущее время: 24-Апр 13:58

Часовой пояс: GMT + 3



Вы не можете начинать темы
Вы не можете отвечать на сообщения
Вы не можете редактировать свои сообщения
Вы не можете удалять свои сообщения
Вы не можете голосовать в опросах
Вы не можете прикреплять файлы к сообщениям
Вы не можете скачивать файлы
Рейтинг торрент трекеров - UpTracker.ru Анализ веб сайта Яндекс.Метрика
службы мониторинга серверов