Loading...
Error

Яркость / Bright (Дэвид Эйр) [2017 г., фантастика, фэнтези, боевик, триллер, криминал, WEBRip 1080p] MVO (NewStudio) | L (BaibaKo)

Ответить на тему
 
Автор Сообщение

Theseus

Стаж: 8 лет 7 месяцев

Сообщений: 4418

Режим только чтение: НЕТ

post 10-Янв-2018 00:15

Quote

Яркость / Bright

Год выхода: 2017
Страна: США
Жанр: фантастика, фэнтези, боевик, триллер, криминал
Продолжительность: 01:57:46
Перевод: Профессиональный (многоголосый закадровый) [NewStudio] / Любительский (многоголосый, закадровый) [BaibaKo]
Субтитры: Russian (Forced, Full), English, English (SDH)
Режиссер: Дэвид Эйр
В ролях: Уилл Смит, Нуми Рапас, Джоэл Эдгертон, Люси Фрай, Джей Эрнандес, Эдгар Рамирес, Айк Баринхолц, Вероника Нго, Хэппи Андерсон, Брэд Уильям Хенке
О фильме: В альтернативном Лос-Анджелесе кого только не встретишь — бок о бок с людьми живут эльфы, орки и даже кентавры. Эльфы, правда, немного брезгуют всеми остальными, поэтому устроили себе отдельный район, куда въезд только по пропускам. А вот людям приходится терпеть грубых и склонных к преступлениям орков, те предпочитают селиться в криминальных гетто.
Патрульный полицейский Дэрил Ворд вынужден работать в паре с орком-полицейским Джакоби — та ещё невидаль. Как-то Дэрил даже схватил пулю из-за нерасторопности напарника, поэтому не слишком ему доверяет. Однажды их патруль прибывает на вызов и на месте преступления обнаруживает несколько трупов, явные следы использования магии, свидетельницу-эльфийку и некий артефакт. Поскольку теперь за ними начинает охоту полгорода, напарникам предстоит пересмотреть степень доверительности в своих отношениях.

Качество: WEBRip 1080p
Формат: MKV
Видео кодек: x.264
Аудио кодек: AC3
Видео: 1920х804 at 24.000 fps, MPEG-4 AVC, ~7413 kbps avg
Aудио#1: Russian: 48 kHz, AC3, 3/2 (L,C,R,l,r) + LFE ch, ~384 kbps avg |Многоголосый закадровый, NewStudio|
Aудио#2: Russian: 48 kHz, AC3, 3/2 (L,C,R,l,r) + LFE ch, ~384 kbps avg |Многоголосый закадровый, BaibaKo|
Aудио#3: English: 48 kHz, EAC3, 3/2 (L,C,R,l,r) + LFE ch, ~448 kbps avg

Общее
Уникальный идентификатор : 150036222336365222932253777553144841572 (0x70DFECE2B0F8D690B8EC41A60EFA8564)
Полное имя : Bright.2017.WEBRip.1080p.NewStudio.Baibako.Wanterlude.mkv
Формат : Matroska
Версия формата : Version 4 / Version 2
Размер файла : 7,24 Гбайт
Продолжительность : 1 ч. 57 м.
Общий поток : 8805 Кбит/сек
Название фильма : Bright | NewStudio, Baibako
Дата кодирования : UTC 2017-12-26 04:14:10
Программа кодирования : mkvmerge v19.0.0 ('Brave Captain') 64-bit
Библиотека кодирования : libebml v1.3.5 + libmatroska v1.4.8

Видео
Идентификатор : 1
Формат : AVC
Формат/Информация : Advanced Video Codec
Профиль формата : High@L4.1
Параметр CABAC формата : Да
Параметр ReFrames формата : 5 кадров
Идентификатор кодека : V_MPEG4/ISO/AVC
Продолжительность : 1 ч. 57 м.
Битрейт : 7413 Кбит/сек
Ширина : 1920 пикселей
Высота : 804 пикселя
Соотношение сторон : 2,40:1
Режим частоты кадров : Постоянный
Частота кадров : 24,000 кадра/сек
Цветовое пространство : YUV
Субдискретизация насыщенности : 4:2:0
Битовая глубина : 8 бит
Тип развёртки : Прогрессивная
Бит/(Пиксели*Кадры) : 0.200
Размер потока : 6,10 Гбайт (84%)
Заголовок : Bright | NewStudio, Baibako
Библиотека кодирования : x264 core 152 r2851kMod ba24899
Настройки программы : cabac=1 / ref=5 / deblock=1:-3:-3 / analyse=0x3:0x133 / me=umh / subme=10 / psy=1 / fade_compensate=0.00 / psy_rd=1.00:0.00 / mixed_ref=1 / me_range=48 / chroma_me=1 / trellis=2 / 8x8dct=1 / cqm=0 / deadzone=21,11 / fast_pskip=0 / chroma_qp_offset=-2 / threads=24 / lookahead_threads=4 / sliced_threads=0 / nr=0 / decimate=0 / interlaced=0 / bluray_compat=0 / constrained_intra=0 / bframes=8 / b_pyramid=2 / b_adapt=2 / b_bias=0 / direct=3 / weightb=1 / open_gop=0 / weightp=2 / keyint=250 / keyint_min=24 / scenecut=40 / intra_refresh=0 / rc=crf / mbtree=0 / crf=17.0000 / qcomp=0.60 / qpmin=0 / qpmax=69 / qpstep=4 / ip_ratio=1.30 / pb_ratio=1.20 / aq=3:0.80
Язык : English
Default : Да
Forced : Нет

Аудио #1
Идентификатор : 2
Формат : AC-3
Формат/Информация : Audio Coding 3
Расширение режима : CM (complete main)
Параметр Endianness формата : Big
Идентификатор кодека : A_AC3
Продолжительность : 1 ч. 57 м.
Вид битрейта : Постоянный
Битрейт : 384 Кбит/сек
Каналы : 6 каналов
Расположение каналов : Front: L C R, Side: L R, LFE
Частота : 48,0 КГц
Битовая глубина : 16 бит
Метод сжатия : С потерями
Размер потока : 323 Мбайт (4%)
Заголовок : NewStudio | Wanterlude
Язык : Russian
Default : Да
Forced : Нет

Аудио #2
Идентификатор : 3
Формат : AC-3
Формат/Информация : Audio Coding 3
Расширение режима : CM (complete main)
Параметр Endianness формата : Big
Идентификатор кодека : A_AC3
Продолжительность : 1 ч. 57 м.
Вид битрейта : Постоянный
Битрейт : 384 Кбит/сек
Каналы : 6 каналов
Расположение каналов : Front: L C R, Side: L R, LFE
Частота : 48,0 КГц
Битовая глубина : 16 бит
Метод сжатия : С потерями
Размер потока : 323 Мбайт (4%)
Заголовок : BaibaKo
Язык : Russian
Default : Нет
Forced : Нет

Аудио #3
Идентификатор : 4
Формат : E-AC-3
Формат/Информация : Audio Coding 3
Параметр Endianness формата : Big
Идентификатор кодека : A_EAC3
Продолжительность : 1 ч. 57 м.
Вид битрейта : Постоянный
Битрейт : 448 Кбит/сек
Каналы : 6 каналов
Расположение каналов : Front: L C R, Side: L R, LFE
Частота : 48,0 КГц
Метод сжатия : С потерями
Размер потока : 377 Мбайт (5%)
Язык : English
Default : Нет
Forced : Нет

Текст #1
Идентификатор : 5
Формат : ASS
Идентификатор кодека : S_TEXT/ASS
Идентификатор кодека/Информация : Advanced Sub Station Alpha
Метод сжатия : Без потерь
Заголовок : Forced
Язык : Russian
Default : Да
Forced : Нет

Текст #2
Идентификатор : 6
Формат : UTF-8
Идентификатор кодека : S_TEXT/UTF8
Идентификатор кодека/Информация : UTF-8 Plain Text
Заголовок : Full | Focs
Язык : Russian
Default : Нет
Forced : Нет

Текст #3
Идентификатор : 7
Формат : UTF-8
Идентификатор кодека : S_TEXT/UTF8
Идентификатор кодека/Информация : UTF-8 Plain Text
Язык : English
Default : Нет
Forced : Нет

Текст #4
Идентификатор : 8
Формат : UTF-8
Идентификатор кодека : S_TEXT/UTF8
Идентификатор кодека/Информация : UTF-8 Plain Text
Заголовок : SDH
Язык : English
Default : Нет
Forced : Нет



Скрыт Profile PM
Показать сообщения:    
Ответить на тему

Текущее время: 24-Апр 13:49

Часовой пояс: GMT + 3



Вы не можете начинать темы
Вы не можете отвечать на сообщения
Вы не можете редактировать свои сообщения
Вы не можете удалять свои сообщения
Вы не можете голосовать в опросах
Вы не можете прикреплять файлы к сообщениям
Вы не можете скачивать файлы
Рейтинг торрент трекеров - UpTracker.ru Анализ веб сайта Яндекс.Метрика
службы мониторинга серверов