Loading...
Error

Полуночный человек / The Midnight Man (Трэвис Заривны) [2017, ужасы, WEB-DL 720p] DUB | Чистый звук

Ответить на тему
 
Автор Сообщение

Theseus

Стаж: 9 лет 2 месяца

Сообщений: 4714

Режим только чтение: НЕТ

post 27-Янв-2018 03:44

Quote

Полуночный человек / The Midnight Man

Год выхода: 2017
Страна: США, Канада
Жанр: ужасы
Продолжительность: 01:32:56
Перевод: Профессиональный (полное дублирование) | Чистый звук
Субтитры: Отсутствуют
Режиссер: Трэвис Заривны
В ролях: Лин Шэй, Габриэль Хоф, Грэйсон Сзакакс, Эмили Хейн, Саммер Х. Хауэлл, Луиз Линтон, Майкл Сироу, Роберт Инглунд, Логан Креран, Калли Лэйн, ...
О фильме:
На чердаке своей бабушки Алекс и ее друзья находят игру, с помощью которой можно вызвать Полуночного человека. Это опасное существо умеет воплощать самые худшие кошмары тех, кто к нему обращается.

Качество: WEB-DL 720p
Формат: MKV
Видео кодек: x.264
Аудио кодек: AC3
Видео: AVC, 1280x528, 3972kb/s, 23.976fps
Аудио 1: AC-3, 48.0 KHz, 2 ch, 384 Kbps, CBR | RUS
Аудио 2: AC-3, 48.0 KHz, 6 ch, 384 Kbps, CBR | ENG

Формат : Matroska
Версия формата : Version 2
Размер файла : 3,14 Гбайт
Продолжительность : 1 ч. 32 м.
Общий поток : 4836 Кбит/сек
Дата кодирования : UTC 2018-01-26 11:50:13
Программа кодирования : mkvmerge v7.8.0 ('River Man') 32bit built on Apr 3 2015 12:11:22
Библиотека кодирования : libebml v1.3.1 + libmatroska v1.4.2

Видео
Идентификатор : 1
Формат : AVC
Формат/Информация : Advanced Video Codec
Профиль формата : Main@L3.1
Настройки формата : 2 Ref Frames
Параметр CABAC формата : Нет
Параметр RefFrames формата : 2 кадра
Идентификатор кодека : V_MPEG4/ISO/AVC
Продолжительность : 1 ч. 32 м.
Битрейт : 3972 Кбит/сек
Ширина : 1280 пикселей
Высота : 528 пикселей
Соотношение сторон : 2,40:1
Режим частоты кадров : Постоянный
Частота кадров : 23,976 кадра/сек
Цветовое пространство : YUV
Субдискретизация насыщенности : 4:2:0
Битовая глубина : 8 бит
Тип развёртки : Прогрессивная
Бит/(Пиксели*Кадры) : 0.245
Размер потока : 2,58 Гбайт (82%)
Заголовок : The.Midnight.Man.2017.720p.WEB-DL.DD5.1.H264-FGT
Язык : English
Default : Да
Forced : Нет
Цветовой диапазон : Limited
Основные цвета : BT.709
Характеристики трансфера : BT.709
Коэффициенты матрицы : BT.709

Аудио #1
Идентификатор : 2
Формат : AC-3
Формат/Информация : Audio Coding 3
Параметр Endianness формата : Big
Идентификатор кодека : A_AC3
Продолжительность : 1 ч. 32 м.
Вид битрейта : Постоянный
Битрейт : 384 Кбит/сек
Каналы : 2 канала
Расположение каналов : Front: L R
Частота : 48,0 КГц
Частота кадров : 31,250 кадров/сек (1536 SPF)
Битовая глубина : 16 бит
Метод сжатия : С потерями
Размер потока : 255 Мбайт (8%)
Язык : Russian
Default : Да
Forced : Да

Аудио #2
Идентификатор : 3
Формат : AC-3
Формат/Информация : Audio Coding 3
Параметр Endianness формата : Big
Идентификатор кодека : A_AC3
Продолжительность : 1 ч. 32 м.
Вид битрейта : Постоянный
Битрейт : 384 Кбит/сек
Каналы : 6 каналов
Расположение каналов : Front: L C R, Side: L R, LFE
Частота : 48,0 КГц
Частота кадров : 31,250 кадров/сек (1536 SPF)
Битовая глубина : 16 бит
Метод сжатия : С потерями
Размер потока : 255 Мбайт (8%)
Заголовок : The.Midnight.Man.2017.720p.WEB-DL.DD5.1.H264-FGT
Язык : English
Default : Нет
Forced : Нет

Меню
00:00:00.000 : en:1
00:15:47.697 : en:2
00:28:44.598 : en:3
00:39:10.514 : en:4
00:50:13.093 : en:5
01:03:10.036 : en:6
01:14:45.564 : en:7
01:26:37.525 : en:8
01:27:33.037 : en:9



Скрыт Profile PM
Показать сообщения:    
Ответить на тему

Текущее время: 20-Ноя 15:58

Часовой пояс: GMT + 3



Вы не можете начинать темы
Вы не можете отвечать на сообщения
Вы не можете редактировать свои сообщения
Вы не можете удалять свои сообщения
Вы не можете голосовать в опросах
Вы не можете прикреплять файлы к сообщениям
Вы не можете скачивать файлы
Рейтинг торрент трекеров - UpTracker.ru Анализ веб сайта Яндекс.Метрика
службы мониторинга серверов