Loading...
Error

Обет молчания / Acts of Vengeance (Айзек Флорентайн) [2017 г., Боевик, драма, BDRip 720p] DUB | Лицензия

Ответить на тему
 
Автор Сообщение

Theseus

Стаж: 9 лет 2 месяца

Сообщений: 4714

Режим только чтение: НЕТ

post 03-Мар-2018 14:43

Quote

Обет молчания / Acts of Vengeance

Год выхода: 2017
Страна: Болгария
Жанр: Боевик, драма
Продолжительность: 01:27:20
Перевод: Профессиональный (полное дублирование) | Лицензия
Субтитры: Русские, Английские
Режиссер: Айзек Флорентайн
В ролях: Антонио Бандерас, Кристина Серафини, Атанас Сребрев, Карл Урбан, Пас Вега, Роберт Форстер, Лиллиэн Бланкеншип, Марк Смит, Дэвид Сакурай, Айзек Флорентайн
О фильме: Успешный адвокат и счастливый семьянин Фрэнк в один миг теряет жену и дочь. Произошло жестокое убийство, но расследование не продвинулось ни на шаг. Теперь у юриста в жизни одна цель: найти настоящих убийц. Он начинает собственное расследование. Взяв правосудие в свои руки, он клянется, что не произнесет ни слова до тех пор, пока не отомстит за семью.

Качество: BDRip 720p
Формат: MKV
Видео кодек: x.264
Аудио кодек: AC3/DTS
Видео: 1280x694 (1.85:1), 23.976 fps, x264, 6680 kbps avg, 0.314 bit/pixel
Аудио #1: 48 kHz, DTS, 6 ch, 1509 kbps | RUS
Аудио #2: 48 kHz, AC3, 6 ch, 640 kbps | RUS
Аудио #3: 48 kHz, AC3, 6 ch, 640 kbps | ENG
General
Unique ID : 130072387220107710019664863888201117861 (0x61DB07D207034DDCBA697A044F6270A5)
Complete name : Acts.of.Vengeance.2017.Lic.BDRip.720p.ExKinoRay.mkv
Format : Matroska
Format version : Version 4 / Version 2
File size : 5.78 GiB
Duration : 1 h 27 min
Overall bit rate : 9 469 kb/s
Movie name : Acts of Vengeance (2017) from ExKinoRay
Encoded date : UTC 2018-02-20 01:31:41
Writing application : mkvmerge v20.0.0 ('I Am The Sun') 64-bit
Writing library : libebml v1.3.5 + libmatroska v1.4.8

Video
ID : 1
Format : AVC
Format/Info : Advanced Video Codec
Format profile : High@L4.1
Format settings : CABAC / 9 Ref Frames
Format settings, CABAC : Yes
Format settings, ReFrames : 9 frames
Codec ID : V_MPEG4/ISO/AVC
Duration : 1 h 27 min
Bit rate : 6 680 kb/s
Width : 1 280 pixels
Height : 694 pixels
Display aspect ratio : 1.85:1
Frame rate mode : Constant
Frame rate : 23.976 (24000/1001) FPS
Color space : YUV
Chroma subsampling : 4:2:0
Bit depth : 8 bits
Scan type : Progressive
Bits/(Pixel*Frame) : 0.314
Stream size : 4.08 GiB (71%)
Writing library : x264 core 152 r2851+58 429492e t_mod_Custom [8-bit@all X86_64]
Encoding settings : cabac=1 / ref=9 / deblock=1:-3:-3 / analyse=0x3:0x133 / me=umh / subme=10 / psy=1 / fade_compensate=0.00 / psy_rd=1.00:0.00 / mixed_ref=1 / me_range=32 / chroma_me=1 / trellis=2 / 8x8dct=1 / cqm=0 / deadzone=21,11 / fast_pskip=0 / chroma_qp_offset=-2 / threads=22 / lookahead_threads=3 / sliced_threads=0 / nr=0 / decimate=0 / interlaced=0 / bluray_compat=0 / constrained_intra=0 / fgo=0 / bframes=8 / b_pyramid=2 / b_adapt=2 / b_bias=0 / direct=3 / weightb=1 / open_gop=0 / weightp=2 / keyint=250 / keyint_min=23 / scenecut=40 / intra_refresh=0 / rc_lookahead=60 / rc=crf / mbtree=0 / crf=16.0000 / qcomp=0.65 / qpmin=0:0:0 / qpmax=69:69:69 / qpstep=4 / vbv_maxrate=62500 / vbv_bufsize=78125 / crf_max=0.0 / nal_hrd=none / filler=0 / ip_ratio=1.30 / pb_ratio=1.20 / aq=3:0.81 / aq-sensitivity=10.00 / aq-factor=1.00:1.00:1.00 / aq2=0 / aq3=0 / zones=26,929,crf=11/7328,7581,crf=12/32176,33236,crf=12
Language : English
Default : Yes
Forced : No

Audio #1
ID : 2
Format : DTS
Format/Info : Digital Theater Systems
Codec ID : A_DTS
Duration : 1 h 27 min
Bit rate mode : Constant
Bit rate : 1 509 kb/s
Channel(s) : 6 channels
Channel positions : Front: L C R, Side: L R, LFE
Sampling rate : 48.0 kHz
Frame rate : 93.750 FPS (512 SPF)
Bit depth : 24 bits
Compression mode : Lossy
Stream size : 941 MiB (16%)
Title : Dub [License]
Language : Russian
Default : Yes
Forced : No

Audio #2
ID : 3
Format : AC-3
Format/Info : Audio Coding 3
Codec ID : A_AC3
Duration : 1 h 27 min
Bit rate mode : Constant
Bit rate : 640 kb/s
Channel(s) : 6 channels
Channel positions : Front: L C R, Side: L R, LFE
Sampling rate : 48.0 kHz
Frame rate : 31.250 FPS (1536 SPF)
Bit depth : 16 bits
Compression mode : Lossy
Stream size : 399 MiB (7%)
Title : Dub [License]
Language : Russian
Service kind : Complete Main
Default : No
Forced : No

Audio #3
ID : 4
Format : AC-3
Format/Info : Audio Coding 3
Codec ID : A_AC3
Duration : 1 h 27 min
Bit rate mode : Constant
Bit rate : 640 kb/s
Channel(s) : 6 channels
Channel positions : Front: L C R, Side: L R, LFE
Sampling rate : 48.0 kHz
Frame rate : 31.250 FPS (1536 SPF)
Bit depth : 16 bits
Compression mode : Lossy
Stream size : 400 MiB (7%)
Title : Original
Language : English
Service kind : Complete Main
Default : No
Forced : No

Text #1
ID : 5
Format : UTF-8
Codec ID : S_TEXT/UTF8
Codec ID/Info : UTF-8 Plain Text
Duration : 1 h 26 min
Bit rate : 46 b/s
Count of elements : 551
Stream size : 29.6 KiB (0%)
Title : Full
Language : Russian
Default : No
Forced : No

Text #2
ID : 6
Format : UTF-8
Codec ID : S_TEXT/UTF8
Codec ID/Info : UTF-8 Plain Text
Duration : 1 h 20 min
Bit rate : 27 b/s
Count of elements : 454
Stream size : 16.4 KiB (0%)
Title : Full
Language : English
Default : No
Forced : No

Menu
00:00:00.000 : en:00:00:00.000
00:05:16.316 : en:00:05:16.316
00:11:00.451 : en:00:11:00.451
00:17:49.318 : en:00:17:49.318
00:24:11.450 : en:00:24:11.450
00:29:07.037 : en:00:29:07.037
00:35:14.612 : en:00:35:14.612
00:39:12.308 : en:00:39:12.308
00:46:29.286 : en:00:46:29.286
00:52:56.590 : en:00:52:56.590
01:00:37.634 : en:01:00:37.634
01:05:28.091 : en:01:05:28.091
01:09:15.902 : en:01:09:15.902
01:13:51.969 : en:01:13:51.969
01:21:32.554 : en:01:21:32.554
01:23:56.031 : en:01:23:56.031



Скрыт Profile PM
Показать сообщения:    
Ответить на тему

Текущее время: 20-Ноя 21:53

Часовой пояс: GMT + 3



Вы не можете начинать темы
Вы не можете отвечать на сообщения
Вы не можете редактировать свои сообщения
Вы не можете удалять свои сообщения
Вы не можете голосовать в опросах
Вы не можете прикреплять файлы к сообщениям
Вы не можете скачивать файлы
Рейтинг торрент трекеров - UpTracker.ru Анализ веб сайта Яндекс.Метрика
службы мониторинга серверов