Loading...
Error

Чёрная Пантера / Black Panther (Райан Куглер) [2018 г.,Фантастика, Боевик, Приключения , BDRemux] [ENG]

Ответить на тему
 
Автор Сообщение

Theseus

Стаж: 9 лет 2 месяца

Сообщений: 4742

Режим только чтение: НЕТ

post 05-Май-2018 22:03

Quote

Чёрная Пантера / Black Panther

Год выпуска: 2018
Страна: США
Жанр: Фантастика, Боевик, Приключения
Продолжительность: 02:14:33
Перевод: Отсутствует
Субтитры: English, French, Spanish
Режиссер: Райан Куглер
В ролях: Чэдвик Боузмэн, Майкл Б. Джордан, Лупита Нионго, Данай Джекесай Гурира, Мартин Фриман, Дэниэл Калуя, Летишиа Райт, Уинстон Дьюк, Стерлинг К. Браун, Анджела Бассетт
Описание: С первого взгляда можно решить, что Ваканда — обычная территория дикой Африки, но это не так. Здесь, в недрах пустынных земель, скрываются залежи уникального металла, способного поглощать вибрацию. Многие пытались добраться до него, разоряя всё на своём пути и принося смерть аборигенам, но каждый раз таинственный дух саванны — Чёрная Пантера — вставал на защиту угнетённых.
Спустя много лет беда снова приходит в Ваканду, и в этот раз враг заручился поддержкой современных технологий. Когда шансов почти не остаётся, Т`Чалла, молодой принц Ваканды, узнаёт, что именно ему предстоит возродить легенду и продолжить вечную борьбу, надев маску Чёрной Пантеры.

Качество: BDRemux
Контейнер: MKV
Видео кодек: H.264
Аудио кодек: DTS HD, AC3
Видео: AVC, 1920x1080 (16:9), 23.976 fps, 23.6 Mbps
Аудио #1: DTS-HD MA, 48.0 KHz, 8 ch, 4981 Kbps (English)
Аудио #2: AC-3, 48.0 KHz, 2 ch, 320 Kbps (English)
Аудио #3: AC-3, 48.0 KHz, 2 ch, 192 Kbps (English)
Рекламы нет !
General
Unique ID Black.Panther.2018.REMUX.BluRay.1080p.AVC.DTS-HD.MA7.1-iFT.mkv
Format : Matroska
Format version : Version 4 / Version 2
File size : 27.4 GiB
Duration : 2 h 14 min
Overall bit rate mode : Variable
Overall bit rate : 29.2 Mb/s
Encoded date : UTC 2018-05-04 20:01:35
Writing application : mkvmerge v22.0.0 ('At The End Of The World') 64-bit
Writing library : libebml v1.3.5 + libmatroska v1.4.8

Video
ID : 1
Format : AVC
Format/Info : Advanced Video Codec
Format profile : High@L4.1
Format settings, CABAC : Yes
Format settings, ReFrames : 4 frames
Codec ID : V_MPEG4/ISO/AVC
Duration : 2 h 14 min
Bit rate mode : Variable
Bit rate : 23.6 Mb/s
Maximum bit rate : 35.0 Mb/s
Width : 1 920 pixels
Height : 1 080 pixels
Display aspect ratio : 16:9
Frame rate mode : Constant
Frame rate : 23.976 (24000/1001) FPS
Color space : YUV
Chroma subsampling : 4:2:0
Bit depth : 8 bits
Scan type : Progressive
Bits/(Pixel*Frame) : 0.475
Stream size : 22.2 GiB (81%)
Default : Yes
Forced : No

Audio #1
ID : 2
Format : DTS
Format/Info : Digital Theater Systems
Format profile : MA / Core
Mode : 16
Format settings, Endianness : Big
Codec ID : A_DTS
Duration : 2 h 14 min
Bit rate mode : Variable / Constant
Bit rate : 4 981 kb/s / 1 509 kb/s
Channel(s) : 8 channels / 6 channels
Channel positions : Front: L C R, Side: L R, Back: L R, LFE / Front: L C R, Side: L R, LFE
Sampling rate : 48.0 kHz
Frame rate : 93.750 FPS (512 spf)
Bit depth : 24 bits
Compression mode : Lossless / Lossy
Stream size : 4.68 GiB (17%)
Language : English
Default : Yes
Forced : No

Audio #2
ID : 3
Format : AC-3
Format/Info : Audio Coding 3
Mode extension : CM (complete main)
Format settings, Endianness : Big
Codec ID : A_AC3
Duration : 2 h 14 min
Bit rate mode : Constant
Bit rate : 320 kb/s
Channel(s) : 2 channels
Channel positions : Front: L R
Sampling rate : 48.0 kHz
Frame rate : 31.250 FPS (1536 spf)
Compression mode : Lossy
Stream size : 308 MiB (1%)
Language : English
Default : No
Forced : No

Audio #3
ID : 4
Format : AC-3
Format/Info : Audio Coding 3
Mode extension : CM (complete main)
Format settings, Endianness : Big
Codec ID : A_AC3
Duration : 2 h 14 min
Bit rate mode : Constant
Bit rate : 192 kb/s
Channel(s) : 2 channels
Channel positions : Front: L R
Sampling rate : 48.0 kHz
Frame rate : 31.250 FPS (1536 spf)
Compression mode : Lossy
Stream size : 185 MiB (1%)
Language : English
Default : No
Forced : No

Text #1
ID : 5
Format : PGS
Muxing mode : zlib
Codec ID : S_HDMV/PGS
Codec ID/Info : Picture based subtitle format used on BDs/HD-DVDs
Duration : 2 h 14 min
Bit rate : 32.6 kb/s
Count of elements : 3670
Stream size : 31.2 MiB (0%)
Language : English
Default : Yes
Forced : No

Text #2
ID : 6
Format : PGS
Muxing mode : zlib
Codec ID : S_HDMV/PGS
Codec ID/Info : Picture based subtitle format used on BDs/HD-DVDs
Duration : 2 h 14 min
Bit rate : 27.4 kb/s
Count of elements : 2946
Stream size : 26.4 MiB (0%)
Language : French
Default : No
Forced : No

Text #3
ID : 7
Format : PGS
Muxing mode : zlib
Codec ID : S_HDMV/PGS
Codec ID/Info : Picture based subtitle format used on BDs/HD-DVDs
Duration : 2 h 14 min
Bit rate : 26.9 kb/s
Count of elements : 2906
Stream size : 25.9 MiB (0%)
Language : Spanish
Default : No
Forced : No

Text #4
ID : 8
Format : PGS
Muxing mode : zlib
Codec ID : S_HDMV/PGS
Codec ID/Info : Picture based subtitle format used on BDs/HD-DVDs
Duration : 2 h 14 min
Bit rate : 78.7 kb/s
Count of elements : 5252
Stream size : 75.5 MiB (0%)
Language : English
Default : No
Forced : No

Text #5
ID : 9
Format : PGS
Muxing mode : zlib
Codec ID : S_HDMV/PGS
Codec ID/Info : Picture based subtitle format used on BDs/HD-DVDs
Duration : 2 h 14 min
Bit rate : 65.5 kb/s
Count of elements : 5061
Stream size : 62.9 MiB (0%)
Language : French
Default : No
Forced : No

Text #6
ID : 10
Format : PGS
Muxing mode : zlib
Codec ID : S_HDMV/PGS
Codec ID/Info : Picture based subtitle format used on BDs/HD-DVDs
Duration : 2 h 14 min
Bit rate : 66.0 kb/s
Count of elements : 5020
Stream size : 63.4 MiB (0%)
Language : Spanish
Default : No
Forced : No

Text #7
ID : 11
Format : PGS
Muxing mode : zlib
Codec ID : S_HDMV/PGS
Codec ID/Info : Picture based subtitle format used on BDs/HD-DVDs
Duration : 2 h 10 min
Bit rate : 838 b/s
Count of elements : 136
Stream size : 801 KiB (0%)
Language : English
Default : No
Forced : No

Text #8
ID : 12
Format : PGS
Muxing mode : zlib
Codec ID : S_HDMV/PGS
Codec ID/Info : Picture based subtitle format used on BDs/HD-DVDs
Duration : 2 h 12 min
Bit rate : 1 235 b/s
Count of elements : 194
Stream size : 1.17 MiB (0%)
Language : French
Default : No
Forced : No

Text #9
ID : 13
Format : PGS
Muxing mode : zlib
Codec ID : S_HDMV/PGS
Codec ID/Info : Picture based subtitle format used on BDs/HD-DVDs
Duration : 2 h 10 min
Bit rate : 1 009 b/s
Count of elements : 152
Stream size : 968 KiB (0%)
Language : Spanish
Default : No
Forced : No

Menu
00:00:00.000 : en:00:00:00.000
00:06:56.291 : en:00:06:56.291
00:12:02.805 : en:00:12:02.805
00:19:12.360 : en:00:19:12.360
00:28:32.961 : en:00:28:32.961
00:33:11.698 : en:00:33:11.698
00:40:57.497 : en:00:40:57.497
00:48:34.036 : en:00:48:34.036
00:53:46.098 : en:00:53:46.098
01:01:57.339 : en:01:01:57.339
01:08:33.026 : en:01:08:33.026
01:16:46.769 : en:01:16:46.769
01:22:24.022 : en:01:22:24.022
01:31:21.434 : en:01:31:21.434
01:41:15.361 : en:01:41:15.361
01:50:56.483 : en:01:50:56.483
01:59:16.941 : en:01:59:16.941
02:02:43.648 : en:02:02:43.648



Скрыт Profile PM
Показать сообщения:    
Ответить на тему

Текущее время: 15-Дек 15:46

Часовой пояс: GMT + 3



Вы не можете начинать темы
Вы не можете отвечать на сообщения
Вы не можете редактировать свои сообщения
Вы не можете удалять свои сообщения
Вы не можете голосовать в опросах
Вы не можете прикреплять файлы к сообщениям
Вы не можете скачивать файлы
Рейтинг торрент трекеров - UpTracker.ru Анализ веб сайта Яндекс.Метрика
службы мониторинга серверов