Loading...
Error

Дэдпул 2 / Deadpool 2 (Дэвид Литч) [2018 г., фантастика, боевик, комедия, приключения, WEB-DL 1080p] [AMAZON] | DUB (Звук с TS)

Ответить на тему
 
Автор Сообщение

Theseus

Стаж: 9 лет 1 месяц

Сообщений: 4652

Режим только чтение: НЕТ

post 08-Авг-2018 10:51

Quote

Дэдпул 2 / Deadpool 2

Год выхода: 2018
Страна: США
Жанр: фантастика, боевик, комедия, приключения
Продолжительность: 01:59:21
Перевод: Профессиональный (полное дублирование) | Звук с TS
Субтитры: Русские (полные), английские (SDH)
Режиссер: Дэвид Литч
В ролях: Джош Бролин, Райан Рейнольдс, Морена Баккарин, Зази Битц, Брианна Хилдебранд, Брэд Питт, Билл Скарсгард, ТиДжей Миллер, Терри Крюс, Роб Делани
О фильме: Единственный и неповторимый болтливый наемник — вернулся! Ещё более масштабный, ещё более разрушительный и даже ещё более голозадый, чем прежде! Когда в его жизнь врывается суперсолдат с убийственной миссией, Дэдпул вынужден задуматься о дружбе, семье и о том, что на самом деле значит быть героем, попутно надирая 50 оттенков задниц. Потому что иногда чтобы делать хорошие вещи, нужно использовать грязные приёмчики..

Качество: WEB-DL 1080p (AMAZON Version)
Формат: MKV
Видео кодек: x.264
Аудио кодек: AC3
Видео: MPEG-4 AVC, 1920x1080, 23.976 fps, 10 Mbps
Аудио 1: AC-3, 48.0 KHz, 2 ch, 192 Kbps, CBR | RUS (DUB / TS)
Аудио 2: AC-3, 48.0 KHz, 2 ch, 192 Kbps, CBR | UKR (DUB / Line)
Аудио 3: E-AC-3, 48.0 KHz, 6 ch, 256 Kbps, CBR

Сэмпл
Рекламы нет !
General
Unique ID : 151343767349668299977286148782831739033 (0x71DBBFD4F9ED88BD20FE014E471CA099)
Complete name : Deadpool.2.2018.rus.ukr.AMZN.WEB-DL.1080p.mkv
Format : Matroska
Format version : Version 4 / Version 2
File size : 8.78 GiB
Duration : 1 h 59 min
Overall bit rate : 10.5 Mb/s
Encoded date : UTC 2018-08-07 20:37:25
Writing application : mkvmerge v23.0.0 ('The Bride Said No') 64-bit
Writing library : libebml v1.3.6 + libmatroska v1.4.9

Video
ID : 1
Format : AVC
Format/Info : Advanced Video Codec
Format profile : High@L4
Format settings : CABAC / 4 Ref Frames
Format settings, CABAC : Yes
Format settings, ReFrames : 4 frames
Codec ID : V_MPEG4/ISO/AVC
Duration : 1 h 59 min
Bit rate mode : Constant
Bit rate : 10 000 kb/s
Width : 1 920 pixels
Height : 1 080 pixels
Display aspect ratio : 16:9
Frame rate mode : Constant
Frame rate : 23.976 (24000/1001) FPS
Color space : YUV
Chroma subsampling : 4:2:0
Bit depth : 8 bits
Scan type : Progressive
Bits/(Pixel*Frame) : 0.201
Stream size : 8.24 GiB (94%)
Language : English
Default : Yes
Forced : No
Color range : Limited
Color primaries : BT.709
Transfer characteristics : BT.709
Matrix coefficients : BT.709

Audio #1
ID : 2
Format : AC-3
Format/Info : Audio Coding 3
Commercial name : Dolby Digital
Codec ID : A_AC3
Duration : 1 h 58 min
Bit rate mode : Constant
Bit rate : 192 kb/s
Channel(s) : 2 channels
Channel positions : Front: L R
Sampling rate : 48.0 kHz
Frame rate : 31.250 FPS (1536 SPF)
Bit depth : 16 bits
Compression mode : Lossy
Stream size : 163 MiB (2%)
Language : Russian
Service kind : Complete Main
Default : Yes
Forced : Yes

Audio #2
ID : 3
Format : AC-3
Format/Info : Audio Coding 3
Commercial name : Dolby Digital
Codec ID : A_AC3
Duration : 1 h 58 min
Bit rate mode : Constant
Bit rate : 192 kb/s
Channel(s) : 2 channels
Channel positions : Front: L R
Sampling rate : 48.0 kHz
Frame rate : 31.250 FPS (1536 SPF)
Bit depth : 16 bits
Compression mode : Lossy
Stream size : 163 MiB (2%)
Language : Ukrainian
Service kind : Complete Main
Default : No
Forced : No

Audio #3
ID : 4
Format : E-AC-3
Format/Info : Enhanced AC-3
Commercial name : Dolby Digital Plus
Codec ID : A_EAC3
Duration : 1 h 59 min
Bit rate mode : Constant
Bit rate : 256 kb/s
Channel(s) : 6 channels
Channel positions : Front: L C R, Side: L R, LFE
Sampling rate : 48.0 kHz
Frame rate : 31.250 FPS (1536 SPF)
Compression mode : Lossy
Stream size : 219 MiB (2%)
Language : English
Service kind : Complete Main
Default : No
Forced : No

Text #1
ID : 5
Format : UTF-8
Codec ID : S_TEXT/UTF8
Codec ID/Info : UTF-8 Plain Text
Duration : 1 h 51 min
Bit rate : 109 b/s
Count of elements : 1933
Stream size : 89.4 KiB (0%)
Language : Russian
Default : No
Forced : No

Text #2
ID : 6
Format : UTF-8
Codec ID : S_TEXT/UTF8
Codec ID/Info : UTF-8 Plain Text
Duration : 1 h 58 min
Bit rate : 68 b/s
Count of elements : 2153
Stream size : 59.3 KiB (0%)
Title : SDH
Language : English
Default : No
Forced : No

Menu
00:00:00.000 : en:Scene 1
00:02:35.000 : en:Scene 2
00:05:57.000 : en:Scene 3
00:08:15.000 : en:Scene 4
00:11:34.000 : en:Scene 5
00:14:56.000 : en:Scene 6
00:16:23.000 : en:Scene 7
00:20:28.000 : en:Scene 8
00:22:04.000 : en:Scene 9
00:26:38.000 : en:Scene 10
00:31:43.000 : en:Scene 11
00:35:20.000 : en:Scene 12
00:39:03.000 : en:Scene 13
00:41:53.000 : en:Scene 14
00:46:17.000 : en:Scene 15
00:50:33.000 : en:Scene 16
00:54:01.000 : en:Scene 17
00:56:31.000 : en:Scene 18
00:58:29.000 : en:Scene 19
01:00:29.000 : en:Scene 20
01:03:58.000 : en:Scene 21
01:07:56.000 : en:Scene 22
01:09:38.000 : en:Scene 23
01:13:31.000 : en:Scene 24
01:17:48.000 : en:Scene 25
01:20:59.000 : en:Scene 26
01:24:09.000 : en:Scene 27
01:26:26.000 : en:Scene 28
01:29:32.000 : en:Scene 29
01:31:44.000 : en:Scene 30
01:33:29.000 : en:Scene 31
01:35:26.000 : en:Scene 32
01:38:58.000 : en:Scene 33
01:42:19.000 : en:Scene 34
01:45:21.000 : en:Scene 35
01:49:34.000 : en:Scene 36



Скрыт Profile PM
Показать сообщения:    
Ответить на тему

Текущее время: 21-Окт 22:37

Часовой пояс: GMT + 3



Вы не можете начинать темы
Вы не можете отвечать на сообщения
Вы не можете редактировать свои сообщения
Вы не можете удалять свои сообщения
Вы не можете голосовать в опросах
Вы не можете прикреплять файлы к сообщениям
Вы не можете скачивать файлы
Рейтинг торрент трекеров - UpTracker.ru Анализ веб сайта Яндекс.Метрика
службы мониторинга серверов