Loading...
Error

Человек-муравей и Оса / Ant-Man and the Wasp (Пейтон Рид) [2018 г., фантастика, боевик, приключения, WEB-DL 1080p] [ENG]

Ответить на тему
 
Автор Сообщение

Theseus

Стаж: 9 лет 1 месяц

Сообщений: 4651

Режим только чтение: НЕТ

post 01-Окт-2018 22:18

Quote

Человек-муравей и Оса / Ant-Man and the Wasp

Год выхода: 2018
Страна: США
Жанр: фантастика, боевик, приключения
Продолжительность: 01:47:02
Перевод: Отсутствует
Субтитры: Отсутствуют
Режиссер: Пейтон Рид
В ролях: Пол Радд, Эванджелин Лилли, Майкл Пенья, Уолтон Гоггинс, Бобби Каннавале, Джуди Грир, Ти-Ай, Давид Дастмалчян, Ханна Джон-Кэймен, Эбби Райдер Фортсон
О фильме: Скотт Лэнг, известный также как Человек-муравей, уже заслужил право оказаться в команде Мстителей. Но желание быть ближе к дочери удерживает его в родном Сан-Франциско — до тех пор, пока доктор Хэнк Пим, создавший когда-то изменяющий размеры своего владельца чудо-костюм, не призывает Скотта присоединиться к новой опасной миссии. А помогать в противостоянии с коварным врагом Человеку-муравью будет новая напарница — Оса.

Качество: WEB-DL 1080p
Формат: MKV
Видео кодек: x.264
Аудио кодек: AC3
Видео: AVC, 1920x804, 23.976 fps, 4507 Kbps
Аудио: 48 kHz, AC3, 6 ch, 384 kbps (ENG)
Рекламы нет
General
Unique ID : 308525735213889392321301884633255247974 (0xE81BE52C3CA63F98B6A22EEC22B80066)
Complete name : Ant-Man.and.the.Wasp.2018.1080p.WEB-DL.H264.AC3-FAS.mkv
Format : Matroska
Format version : Version 4 / Version 2
File size : 4.04 GiB
Duration : 1 h 58 min
Overall bit rate : 4 893 kb/s
Encoded date : UTC 2018-10-01 14:16:23
Writing application : mkvmerge v27.0.0 ('Metropolis') 64-bit
Writing library : libebml v1.3.6 + libmatroska v1.4.9

Video
ID : 1
Format : AVC
Format/Info : Advanced Video Codec
Format profile : High@L4
Format settings : CABAC / 5 Ref Frames
Format settings, CABAC : Yes
Format settings, ReFrames : 5 frames
Codec ID : V_MPEG4/ISO/AVC
Duration : 1 h 58 min
Bit rate : 4 507 kb/s
Width : 1 920 pixels
Height : 804 pixels
Display aspect ratio : 2.40:1
Frame rate mode : Constant
Frame rate : 23.976 (24000/1001) FPS
Color space : YUV
Chroma subsampling : 4:2:0
Bit depth : 8 bits
Scan type : Progressive
Bits/(Pixel*Frame) : 0.122
Stream size : 3.72 GiB (92%)
Language : English
Default : Yes
Forced : No
Color range : Limited
Color primaries : BT.709
Transfer characteristics : BT.709
Matrix coefficients : BT.709

Audio
ID : 2
Format : AC-3
Format/Info : Audio Coding 3
Codec ID : A_AC3
Duration : 1 h 58 min
Bit rate mode : Constant
Bit rate : 384 kb/s
Channel(s) : 6 channels
Channel positions : Front: L C R, Side: L R, LFE
Sampling rate : 48.0 kHz
Frame rate : 31.250 FPS (1536 SPF)
Bit depth : 16 bits
Compression mode : Lossy
Delay relative to video : -42 ms
Stream size : 324 MiB (8%)
Language : English
Service kind : Complete Main
Default : Yes
Forced : No

Menu
00:00:00.000 : en:Prologue
00:04:02.000 : en:World's Greatest Grandma
00:10:16.000 : en:Easy Peasy
00:13:39.000 : en:Quantum Entanglement
00:21:25.000 : en:Kitchen Conflict
00:29:07.000 : en:Bill Foster
00:36:09.000 : en:Student Body
00:40:56.000 : en:Molecular Disequilibrium
00:50:17.000 : en:Truth Serum
00:58:59.000 : en:Help From Janet
01:04:56.000 : en:Partners
01:12:54.000 : en:Misdirection
01:18:32.000 : en:San Francisco Car Chase
01:24:45.000 : en:Giant-Man
01:29:47.000 : en:The Quantum Void
01:36:16.000 : en:Extraction
01:43:35.000 : en:Happy Endings
01:46:59.000 : en:End Credits



Скрыт Profile PM
Показать сообщения:    
Ответить на тему

Текущее время: 20-Окт 22:27

Часовой пояс: GMT + 3



Вы не можете начинать темы
Вы не можете отвечать на сообщения
Вы не можете редактировать свои сообщения
Вы не можете удалять свои сообщения
Вы не можете голосовать в опросах
Вы не можете прикреплять файлы к сообщениям
Вы не можете скачивать файлы
Рейтинг торрент трекеров - UpTracker.ru Анализ веб сайта Яндекс.Метрика
службы мониторинга серверов