Loading...
Error

Аксель / A-X-L (Оливер Дэйли) [2018 г., фантастика, боевик, приключения, семейный, WEB-DL 1080p] [ENG]

Ответить на тему
 
Автор Сообщение

Theseus

Стаж: 9 лет 1 месяц

Сообщений: 4703

Режим только чтение: НЕТ

post 30-Окт-2018 01:03

Quote

Аксель / A-X-L

Год выхода: 2018
Страна: США
Жанр: фантастика, боевик, приключения, семейный
Продолжительность: 01:38:56
Перевод: Отсутствует
Субтитры: Отсутствуют
Режиссер: Оливер Дэйли
В ролях: Томас Джейн, Бекки Джи, Тед МакГинли, Лу Тэйлор Пуччи, Амин Наземзадех, Алекс Нюстадтер, Эрик Этебари, Hassie Harrison, Дориан Кинги, Алекс МакНиколл
О фильме: Юный мотоциклист Майлз случайно находит новую военную разработку — гигантскую собаку-робота по имени Аксель. Обладая искусственным интеллектом следующего поколения, но с огромным сердцем верного пса, Аксель быстро становится лучшим другом парня. Но военные не намерены просто так отказаться от металлического зверя, который превзошел в развитии их самые смелые ожидания. История настоящей дружбы и преданности вышла на новый технологический уровень, но вечные законы жизни остались прежними: ты всегда в ответе за тех, кого приручил

Качество: WEB-DL 1080p
Формат: MKV
Видео кодек: x.264
Аудио кодек: AC3
Видео: AVC, 1920x1080 (16:9), 23.976 fps, 6 490 Kbps
Аудио: AC-3, 48.0 KHz, 6 ch, 384 Kbps [ENG]

Сэмпл
Рекламы нет

Код:

Общее
Уникальный идентификатор                 : 199558945198274751024712662197514296817 (0x9621A7A27708FD46AB13A331F2705DF1)
Полное имя                               : A-X-L.2018.1080p.NF.WEB-DL.DD5.1.H264-CMRG[EtHD].mkv
Формат                                   : Matroska
Версия формата                           : Version 4 / Version 2
Размер файла                             : 4,74 Гбайт
Продолжительность                        : 1 ч. 38 м.
Режим общего битрейта                    : Переменный
Общий поток                              : 6859 Кбит/сек
Дата кодирования                         : UTC 2018-10-26 12:05:10
Программа кодирования                    : mkvmerge v7.8.0 ('River Man') 32bit built on Mar 27 2015 16:18:02
Библиотека кодирования                   : libebml v1.3.1 + libmatroska v1.4.2

Видео
Идентификатор                            : 1
Формат                                   : AVC
Формат/Информация                        : Advanced Video Codec
Профиль формата                          : Main@L4
Настройки формата                        : CABAC / 3 Ref Frames
Параметр CABAC формата                   : Да
Параметр RefFrames формата               : 3 кадра
Идентификатор кодека                     : V_MPEG4/ISO/AVC
Продолжительность                        : 1 ч. 38 м.
Вид битрейта                             : Переменный
Битрейт                                  : 6490 Кбит/сек
Максимальный битрейт                     : 9735 Кбит/сек
Ширина                                   : 1920 пикселей
Высота                                   : 1080 пикселей
Соотношение сторон                       : 16:9
Режим частоты кадров                     : Постоянный
Частота кадров                           : 23,976 (24000/1001) кадра/сек
Цветовое пространство                    : YUV
Субдискретизация насыщенности            : 4:2:0
Битовая глубина                          : 8 бит
Тип развёртки                            : Прогрессивная
Бит/(Пиксели*Кадры)                      : 0.131
Размер потока                            : 4,47 Гбайт (94%)
Библиотека кодирования                   : x264 core 148 r2715 7e75228
Настройки программы                      : cabac=1 / ref=3 / deblock=1:0:0 / analyse=0x1:0x111 / me=umh / subme=10 / psy=1 / psy_rd=1.00:0.00 / mixed_ref=1 / me_range=24 / chroma_me=1 / trellis=2 / 8x8dct=0 / cqm=0 / deadzone=21,11 / fast_pskip=1 / chroma_qp_offset=-2 / threads=6 / lookahead_threads=1 / sliced_threads=0 / nr=0 / decimate=1 / interlaced=0 / bluray_compat=0 / stitchable=1 / constrained_intra=0 / bframes=2 / b_pyramid=0 / b_adapt=2 / b_bias=0 / direct=3 / weightb=1 / open_gop=0 / weightp=2 / keyint=48 / keyint_min=25 / scenecut=0 / intra_refresh=0 / rc_lookahead=48 / rc=2pass / mbtree=1 / bitrate=6490 / ratetol=1.0 / qcomp=0.50 / qpmin=6 / qpmax=51 / qpstep=4 / cplxblur=20.0 / qblur=0.5 / vbv_maxrate=9735 / vbv_bufsize=12980 / nal_hrd=vbr / filler=0 / ip_ratio=1.40 / aq=1:1.00
Default                                  : Да
Forced                                   : Нет

Аудио
Идентификатор                            : 2
Формат                                   : AC-3
Формат/Информация                        : Audio Coding 3
Идентификатор кодека                     : A_AC3
Продолжительность                        : 1 ч. 38 м.
Вид битрейта                             : Постоянный
Битрейт                                  : 384 Кбит/сек
Каналы                                   : 6 каналов
Расположение каналов                     : Front: L C R, Side: L R, LFE
Частота                                  : 48,0 КГц
Частота кадров                           : 31,250 кадров/сек (1536 SPF)
Битовая глубина                          : 16 бит
Метод сжатия                             : С потерями
Размер потока                            : 272 Мбайт (6%)
Язык                                     : English
ServiceKind/String                       : Complete Main
Default                                  : Нет
Forced                                   : Нет




Скрыт Profile PM
Показать сообщения:    
Ответить на тему

Текущее время: 17-Ноя 17:27

Часовой пояс: GMT + 3



Вы не можете начинать темы
Вы не можете отвечать на сообщения
Вы не можете редактировать свои сообщения
Вы не можете удалять свои сообщения
Вы не можете голосовать в опросах
Вы не можете прикреплять файлы к сообщениям
Вы не можете скачивать файлы
Рейтинг торрент трекеров - UpTracker.ru Анализ веб сайта Яндекс.Метрика
службы мониторинга серверов