Loading...
Error

Хроники хищных городов / Mortal Engines (Кристиан Риверс) [2018 г., Фантастика, фэнтези, боевик, триллер, приключения, WEB-DL 720p] [Android] | DUB [iTunes]

Ответить на тему
 
Автор Сообщение

Theseus

Стаж: 10 лет

Сообщений: 5011

Режим только чтение: НЕТ

post 31-Янв-2019 13:52

Quote

Хроники хищных городов / Mortal Engines

Год выхода: 2018
Страна: Новая Зеландия, США
Жанр: Фантастика, фэнтези, боевик, триллер, приключения
Продолжительность: 02:08:21
Перевод: Профессиональный (полное дублирование) [iTunes]
Субтитры: Отсутствуют
Режиссер: Кристиан Риверс
В ролях: Гера Хилмарсдоттир, Роберт Шиэн, Хьюго Уивинг, Джихе, Ронан Рафтери, Лейла Джордж, Патрик Мэлахайд, Стивен Лэнг, Колин Сэлмон, Марк Митчинсон, Меник Гунератне, Реге Пейдж, Фрэнки Адамс, Лейфур Сигурдарсон, Кан Уэст, Эндрю Лииз, Ки Чан, Сара Пирс, Марк Хэдлоу, Карен Писториус, Поппи Маклеод, Джоэл Тобек, Йосон Ан
О фильме: Прошли тысячелетия после того, как мир настиг апокалипсис. Человечество адаптировалось и теперь живет по новым правилам. Гигантские движущиеся мегаполисы рассекают пустоши и поглощают маленькие города ради ресурсов. Том Нэтсуорти из нижнего уровня великого Лондона оказывается в смертельной опасности, когда на его пути появляется скрывающаяся от закона бунтарка Эстер Шоу. Они не должны были встретиться, но им суждено изменить будущее.

Качество: WEB-DL 720p
Формат: MP4
Видео кодек: x.264
Аудио кодек: AAC
Видео: AVC, 1280x532 (2.40:1), 23.976 fps, 1 050 kb/s
Аудио: AAC, 48.0 kHz, 2 ch, 128 kb/s

Код:

Общее
Полное имя                               : Mortal.Engines.2018.720p.WEB-DL.mp4
Формат                                   : MPEG-4
Профиль формата                          : Base Media
Идентификатор кодека                     : isom (isom/iso2/avc1/mp41)
Размер файла                             : 1,06 Гбайт
Продолжительность                        : 2 ч. 8 м.
Общий поток                              : 1183 Кбит/сек

Видео
Идентификатор                            : 1
Формат                                   : AVC
Формат/Информация                        : Advanced Video Codec
Профиль формата                          : High@L4.1
Настройки формата                        : CABAC / 8 Ref Frames
Параметр CABAC формата                   : Да
Параметр RefFrames формата               : 8 кадров
Идентификатор кодека                     : avc1
Идентификатор кодека/Информация          : Advanced Video Coding
Продолжительность                        : 2 ч. 8 м.
Битрейт                                  : 1050 Кбит/сек
Ширина                                   : 1280 пикселей
Высота                                   : 532 пикселя
Соотношение сторон                       : 2,40:1
Режим частоты кадров                     : Переменный
Частота кадров                           : 23,976 кадра/сек
Минимальная частота кадров               : 23,810 кадра/сек
Максимальная частота кадров              : 24,390 кадра/сек
Цветовое пространство                    : YUV
Субдискретизация насыщенности            : 4:2:0
Битовая глубина                          : 8 бит
Тип развёртки                            : Прогрессивная
Бит/(Пиксели*Кадры)                      : 0.064
Размер потока                            : 964 Мбайт (89%)
Библиотека кодирования                   : x264 core 157 r2935 545de2f
Настройки программы                      : cabac=1 / ref=8 / deblock=1:-1:-1 / analyse=0x3:0x133 / me=umh / subme=9 / psy=1 / psy_rd=1.00:0.10 / mixed_ref=1 / me_range=16 / chroma_me=1 / trellis=2 / 8x8dct=1 / cqm=0 / deadzone=21,11 / fast_pskip=1 / chroma_qp_offset=-3 / threads=17 / lookahead_threads=1 / sliced_threads=0 / nr=0 / decimate=1 / interlaced=0 / bluray_compat=0 / constrained_intra=0 / bframes=3 / b_pyramid=2 / b_adapt=2 / b_bias=0 / direct=3 / weightb=1 / open_gop=0 / weightp=2 / keyint=250 / keyint_min=23 / scenecut=40 / intra_refresh=0 / rc_lookahead=60 / rc=2pass / mbtree=1 / bitrate=1050 / ratetol=1.0 / qcomp=0.60 / qpmin=0 / qpmax=69 / qpstep=4 / cplxblur=20.0 / qblur=0.5 / ip_ratio=1.40 / aq=1:1.00
Menus                                    : 3
Codec configuration box                  : avcC

Аудио
Идентификатор                            : 2
Формат                                   : AAC LC SBR
Формат/Информация                        : Advanced Audio Codec Low Complexity with Spectral Band Replication
Коммерческое название                    : HE-AAC
Настройки формата                        : Implicit
Идентификатор кодека                     : mp4a-40-2
Продолжительность                        : 2 ч. 8 м.
Вид битрейта                             : Постоянный
Битрейт                                  : 128 Кбит/сек
Каналы                                   : 2 канала
Channel layout                           : L R
Частота                                  : 48,0 КГц
Частота кадров                           : 23,438 кадра/сек (2048 SPF)
Метод сжатия                             : С потерями
Размер потока                            : 118 Мбайт (11%)
Язык                                     : Russian
Default                                  : Да
AlternateGroup/String                    : 1
Menus                                    : 3

Меню
Идентификатор                            : 3
Идентификатор кодека                     : text
Продолжительность                        : 2 ч. 8 м.
Язык                                     : English
Menu For                                 : 1,2
00:00:00.000                             : 1
00:09:25.398                             : 2
00:16:14.306                             : 3
00:24:21.626                             : 4
00:31:25.591                             : 5
00:35:54.067                             : 6
00:41:28.818                             : 7
00:44:54.815                             : 8
00:50:17.804                             : 9
00:54:22.173                             : 10
01:00:52.396                             : 11
01:07:13.068                             : 12
01:11:13.850                             : 13
01:17:38.734                             : 14
01:25:26.618                             : 15
01:33:31.394                             : 16
01:39:29.543                             : 17
01:47:59.261                             : 18
01:52:12.555                             : 19
01:58:34.520                             : 20



Скрыт Profile PM
Показать сообщения:    
Ответить на тему

Текущее время: 16-Окт 01:46

Часовой пояс: GMT + 3



Вы не можете начинать темы
Вы не можете отвечать на сообщения
Вы не можете редактировать свои сообщения
Вы не можете удалять свои сообщения
Вы не можете голосовать в опросах
Вы не можете прикреплять файлы к сообщениям
Вы не можете скачивать файлы
Рейтинг торрент трекеров - UpTracker.ru Анализ веб сайта Яндекс.Метрика
службы мониторинга серверов