Loading...
Error

Тройная граница / Triple Frontier (Джей Си Чендор) [2019, боевик, триллер, драма, криминал, приключения, WEB-DL 1080p] | DUB

Ответить на тему
 
Автор Сообщение

Theseus

Стаж: 9 лет 6 месяцев

Сообщений: 4865

Режим только чтение: НЕТ

post 13-Мар-2019 18:52

Quote

Тройная граница / Triple Frontier

Год выхода: 2019
Страна: США
Жанр: боевик, триллер, драма, криминал, приключения
Продолжительность: 02:05:55
Перевод: Профессиональный (полное дублирование) [Невафильм по заказу Netflix]
Субтитры: Russian (Forced, Full), English (Forced, Full, SDH) и другие
Режиссер: Джей Си Чендор
В ролях: Бен Аффлек, Чарли Ханнэм, Адриа Архона, Педро Паскаль, Оскар Айзек, Гаррет Хедлунд, Шейла Ванд, Рейнальдо Гальегос, Кристин Хорн, Шон МакБрайд

О фильме: Пограничная зона между Парагваем, Аргентиной и Бразилией считается раем для организованной преступности, наркоторговцев и террористов. Долгие годы отряды специального назначения пытались зачистить регион, но безуспешно. Пятеро оперативников устали смотреть, как впустую погибают их коллеги, и решают взять дело в свои руки. Они рассчитывают ограбить местного наркобарона и одним выстрелом убить двух зайцев — лишить крупный картель финансирования и обеспечить себе безбедное существование.

Качество: WEB-DL 1080p
Формат: MKV
Видео кодек: x.264
Аудио кодек: AC3
Видео: AVC, 1920x1080 (16:9), 23.976 fps, 4420 Кбит/сек
Аудио 1: 48 kHz, AC3, 6 ch, 384 Кбит/сек | RUS
Аудио 2: 48 kHz, E-AC3, 6ch, 448 Кбит/сек | ENG

Код:

Полное имя                               : Triple.Frontier.2019.1080p.WEB-DL.DUB.EniaHD.mkv
Формат                                   : Matroska
Версия формата                           : Version 4
Размер файла                             : 4,60 Гбайт
Продолжительность                        : 2 ч. 5 м.
Режим общего битрейта                    : Переменный
Общий поток                              : 5230 Кбит/сек
Название фильма                          : Тройная граница (2019)
Дата кодирования                         : UTC 2019-03-13 09:23:04
Программа кодирования                    : mkvmerge v32.0.0 ('Astral Progressions') 32-bit
Библиотека кодирования                   : libebml v1.3.7 + libmatroska v1.5.0
Обложка                                  : Yes
Attachments                              : cover.triple.frontier.jpg

Видео
Идентификатор                            : 1
Формат                                   : AVC
Формат/Информация                        : Advanced Video Codec
Профиль формата                          : Main@L4
Настройки формата                        : CABAC / 3 Ref Frames
Параметр CABAC формата                   : Да
Параметр RefFrames формата               : 3 кадра
Идентификатор кодека                     : V_MPEG4/ISO/AVC
Продолжительность                        : 2 ч. 5 м.
Вид битрейта                             : Переменный
Битрейт                                  : 4420 Кбит/сек
Максимальный битрейт                     : 6630 Кбит/сек
Ширина                                   : 1920 пикселей
Высота                                   : 1080 пикселей
Соотношение сторон                       : 16:9
Режим частоты кадров                     : Постоянный
Частота кадров                           : 24,000 кадра/сек
Цветовое пространство                    : YUV
Субдискретизация насыщенности            : 4:2:0
Битовая глубина                          : 8 бит
Тип развёртки                            : Прогрессивная
Бит/(Пиксели*Кадры)                      : 0.089
Размер потока                            : 3,86 Гбайт (84%)
Заголовок                                : Triple.Frontier.2019.1080p.WEB-DL.DUB.EniaHD
Библиотека кодирования                   : x264 core 148 r2715 7e75228
Настройки программы                      : cabac=1 / ref=3 / deblock=1:0:0 / analyse=0x1:0x111 / me=umh / subme=10 / psy=1 / psy_rd=1.00:0.00 / mixed_ref=1 / me_range=24 / chroma_me=1 / trellis=2 / 8x8dct=0 / cqm=0 / deadzone=21,11 / fast_pskip=1 / chroma_qp_offset=-2 / threads=8 / lookahead_threads=1 / sliced_threads=0 / nr=0 / decimate=1 / interlaced=0 / bluray_compat=0 / stitchable=1 / constrained_intra=0 / bframes=2 / b_pyramid=0 / b_adapt=2 / b_bias=0 / direct=3 / weightb=1 / open_gop=0 / weightp=2 / keyint=48 / keyint_min=25 / scenecut=0 / intra_refresh=0 / rc_lookahead=48 / rc=2pass / mbtree=1 / bitrate=4420 / ratetol=1.0 / qcomp=0.50 / qpmin=6 / qpmax=51 / qpstep=4 / cplxblur=20.0 / qblur=0.5 / vbv_maxrate=6630 / vbv_bufsize=8840 / nal_hrd=vbr / filler=0 / ip_ratio=1.40 / aq=1:1.00
Язык                                     : English
Default                                  : Да
Forced                                   : Нет

Аудио #1
Идентификатор                            : 2
Формат                                   : AC-3
Формат/Информация                        : Audio Coding 3
Коммерческое название                    : Dolby Digital
Идентификатор кодека                     : A_AC3
Продолжительность                        : 2 ч. 5 м.
Вид битрейта                             : Постоянный
Битрейт                                  : 384 Кбит/сек
Каналы                                   : 6 каналов
Channel layout                           : L R C LFE Ls Rs
Частота                                  : 48,0 КГц
Частота кадров                           : 31,250 кадров/сек (1536 SPF)
Битовая глубина                          : 16 бит
Метод сжатия                             : С потерями
Размер потока                            : 346 Мбайт (7%)
Заголовок                                : AC3 5.1 @ 384 kbps - DUB, Невафильм
Язык                                     : Russian
ServiceKind/String                       : Complete Main
Default                                  : Да
Forced                                   : Нет

Аудио #2
Идентификатор                            : 3
Формат                                   : E-AC-3 JOC
Формат/Информация                        : Enhanced AC-3 with Joint Object Coding
Коммерческое название                    : Dolby Digital Plus with Dolby Atmos
Идентификатор кодека                     : A_EAC3
Продолжительность                        : 2 ч. 5 м.
Вид битрейта                             : Постоянный
Битрейт                                  : 448 Кбит/сек
Каналы                                   : 6 каналов
Channel layout                           : L R C LFE Ls Rs
Частота                                  : 48,0 КГц
Частота кадров                           : 31,250 кадров/сек (1536 SPF)
Метод сжатия                             : С потерями
Размер потока                            : 403 Мбайт (9%)
Заголовок                                : E-AC3 + Atmos 5.1 @ 448 kbps - Original
Язык                                     : English
ServiceKind/String                       : Complete Main
Default                                  : Нет
Forced                                   : Нет
Complexity index                         : 16
Number of dynamic objects                : 15
Bed channel count                        : 1 канал
Bed channel configuration                : LFE

Текст #1
Идентификатор                            : 4
Формат                                   : UTF-8
Идентификатор кодека                     : S_TEXT/UTF8
Идентификатор кодека/Информация          : UTF-8 Plain Text
Продолжительность                        : 2 ч. 4 м.
Битрейт                                  : 6 бит/сек
ElementCount                             : 169
Размер потока                            : 6,18 Кбайт (0%)
Заголовок                                : Forced
Язык                                     : Russian
Default                                  : Да
Forced                                   : Да

Текст #2
Идентификатор                            : 5
Формат                                   : UTF-8
Идентификатор кодека                     : S_TEXT/UTF8
Идентификатор кодека/Информация          : UTF-8 Plain Text
Продолжительность                        : 1 ч. 57 м.
Битрейт                                  : 71 бит/сек
ElementCount                             : 1397
Размер потока                            : 61,1 Кбайт (0%)
Заголовок                                : Full
Язык                                     : Russian
Default                                  : Нет
Forced                                   : Нет

Текст #3
Идентификатор                            : 6
Формат                                   : UTF-8
Идентификатор кодека                     : S_TEXT/UTF8
Идентификатор кодека/Информация          : UTF-8 Plain Text
Продолжительность                        : 1 ч. 47 м.
Битрейт                                  : 5 бит/сек
ElementCount                             : 168
Размер потока                            : 4,32 Кбайт (0%)
Заголовок                                : Forced
Язык                                     : English
Default                                  : Нет
Forced                                   : Нет

Текст #4
Идентификатор                            : 7
Формат                                   : UTF-8
Идентификатор кодека                     : S_TEXT/UTF8
Идентификатор кодека/Информация          : UTF-8 Plain Text
Продолжительность                        : 1 ч. 56 м.
Битрейт                                  : 54 бит/сек
ElementCount                             : 1464
Размер потока                            : 46,6 Кбайт (0%)
Заголовок                                : Full
Язык                                     : English
Default                                  : Нет
Forced                                   : Нет

Текст #5
Идентификатор                            : 8
Формат                                   : UTF-8
Идентификатор кодека                     : S_TEXT/UTF8
Идентификатор кодека/Информация          : UTF-8 Plain Text
Продолжительность                        : 1 ч. 57 м.
Битрейт                                  : 66 бит/сек
ElementCount                             : 1725
Размер потока                            : 57,2 Кбайт (0%)
Заголовок                                : Full SDH
Язык                                     : English
Default                                  : Нет
Forced                                   : Нет

Текст #6
Идентификатор                            : 9
Формат                                   : UTF-8
Идентификатор кодека                     : S_TEXT/UTF8
Идентификатор кодека/Информация          : UTF-8 Plain Text
Продолжительность                        : 1 ч. 57 м.
Битрейт                                  : 91 бит/сек
ElementCount                             : 1440
Размер потока                            : 78,4 Кбайт (0%)
Язык                                     : Arabic
Default                                  : Нет
Forced                                   : Нет

Текст #7
Идентификатор                            : 10
Формат                                   : UTF-8
Идентификатор кодека                     : S_TEXT/UTF8
Идентификатор кодека/Информация          : UTF-8 Plain Text
Продолжительность                        : 1 ч. 57 м.
Битрейт                                  : 40 бит/сек
ElementCount                             : 1405
Размер потока                            : 34,5 Кбайт (0%)
Язык                                     : Danish
Default                                  : Нет
Forced                                   : Нет

Текст #8
Идентификатор                            : 11
Формат                                   : UTF-8
Идентификатор кодека                     : S_TEXT/UTF8
Идентификатор кодека/Информация          : UTF-8 Plain Text
Продолжительность                        : 1 ч. 57 м.
Битрейт                                  : 47 бит/сек
ElementCount                             : 1417
Размер потока                            : 41,1 Кбайт (0%)
Язык                                     : German
Default                                  : Нет
Forced                                   : Нет

Текст #9
Идентификатор                            : 12
Формат                                   : UTF-8
Идентификатор кодека                     : S_TEXT/UTF8
Идентификатор кодека/Информация          : UTF-8 Plain Text
Продолжительность                        : 1 ч. 57 м.
Битрейт                                  : 76 бит/сек
ElementCount                             : 1416
Размер потока                            : 65,3 Кбайт (0%)
Язык                                     : Greek
Default                                  : Нет
Forced                                   : Нет

Текст #10
Идентификатор                            : 13
Формат                                   : UTF-8
Идентификатор кодека                     : S_TEXT/UTF8
Идентификатор кодека/Информация          : UTF-8 Plain Text
Продолжительность                        : 1 ч. 57 м.
Битрейт                                  : 41 бит/сек
ElementCount                             : 1239
Размер потока                            : 35,4 Кбайт (0%)
Язык                                     : Spanish
Default                                  : Нет
Forced                                   : Нет

Текст #11
Идентификатор                            : 14
Формат                                   : UTF-8
Идентификатор кодека                     : S_TEXT/UTF8
Идентификатор кодека/Информация          : UTF-8 Plain Text
Продолжительность                        : 1 ч. 57 м.
Битрейт                                  : 48 бит/сек
ElementCount                             : 1433
Размер потока                            : 41,3 Кбайт (0%)
Заголовок                                : European
Язык                                     : Spanish
Default                                  : Нет
Forced                                   : Нет

Текст #12
Идентификатор                            : 15
Формат                                   : UTF-8
Идентификатор кодека                     : S_TEXT/UTF8
Идентификатор кодека/Информация          : UTF-8 Plain Text
Продолжительность                        : 1 ч. 56 м.
Битрейт                                  : 45 бит/сек
ElementCount                             : 1178
Размер потока                            : 38,6 Кбайт (0%)
Язык                                     : Finnish
Default                                  : Нет
Forced                                   : Нет

Текст #13
Идентификатор                            : 16
Формат                                   : UTF-8
Идентификатор кодека                     : S_TEXT/UTF8
Идентификатор кодека/Информация          : UTF-8 Plain Text
Продолжительность                        : 1 ч. 57 м.
Битрейт                                  : 50 бит/сек
ElementCount                             : 1429
Размер потока                            : 43,7 Кбайт (0%)
Язык                                     : French
Default                                  : Нет
Forced                                   : Нет

Текст #14
Идентификатор                            : 17
Формат                                   : UTF-8
Идентификатор кодека                     : S_TEXT/UTF8
Идентификатор кодека/Информация          : UTF-8 Plain Text
Продолжительность                        : 1 ч. 57 м.
Битрейт                                  : 74 бит/сек
ElementCount                             : 1434
Размер потока                            : 64,0 Кбайт (0%)
Язык                                     : Hebrew
Default                                  : Нет
Forced                                   : Нет

Текст #15
Идентификатор                            : 18
Формат                                   : UTF-8
Идентификатор кодека                     : S_TEXT/UTF8
Идентификатор кодека/Информация          : UTF-8 Plain Text
Продолжительность                        : 1 ч. 57 м.
Битрейт                                  : 46 бит/сек
ElementCount                             : 1442
Размер потока                            : 39,5 Кбайт (0%)
Язык                                     : Indonesian
Default                                  : Нет
Forced                                   : Нет

Текст #16
Идентификатор                            : 19
Формат                                   : UTF-8
Идентификатор кодека                     : S_TEXT/UTF8
Идентификатор кодека/Информация          : UTF-8 Plain Text
Продолжительность                        : 1 ч. 57 м.
Битрейт                                  : 48 бит/сек
ElementCount                             : 1435
Размер потока                            : 41,6 Кбайт (0%)
Язык                                     : Italian
Default                                  : Нет
Forced                                   : Нет

Текст #17
Идентификатор                            : 20
Формат                                   : UTF-8
Идентификатор кодека                     : S_TEXT/UTF8
Идентификатор кодека/Информация          : UTF-8 Plain Text
Продолжительность                        : 1 ч. 57 м.
Битрейт                                  : 43 бит/сек
ElementCount                             : 1421
Размер потока                            : 37,4 Кбайт (0%)
Язык                                     : Japanese
Default                                  : Нет
Forced                                   : Нет

Текст #18
Идентификатор                            : 21
Формат                                   : UTF-8
Идентификатор кодека                     : S_TEXT/UTF8
Идентификатор кодека/Информация          : UTF-8 Plain Text
Продолжительность                        : 1 ч. 56 м.
Битрейт                                  : 56 бит/сек
ElementCount                             : 1437
Размер потока                            : 48,5 Кбайт (0%)
Язык                                     : Korean
Default                                  : Нет
Forced                                   : Нет

Текст #19
Идентификатор                            : 22
Формат                                   : UTF-8
Идентификатор кодека                     : S_TEXT/UTF8
Идентификатор кодека/Информация          : UTF-8 Plain Text
Продолжительность                        : 1 ч. 57 м.
Битрейт                                  : 40 бит/сек
ElementCount                             : 1419
Размер потока                            : 34,7 Кбайт (0%)
Язык                                     : Norwegian Bokmal
Default                                  : Нет
Forced                                   : Нет

Текст #20
Идентификатор                            : 23
Формат                                   : UTF-8
Идентификатор кодека                     : S_TEXT/UTF8
Идентификатор кодека/Информация          : UTF-8 Plain Text
Продолжительность                        : 1 ч. 57 м.
Битрейт                                  : 41 бит/сек
ElementCount                             : 1179
Размер потока                            : 35,3 Кбайт (0%)
Язык                                     : Dutch
Default                                  : Нет
Forced                                   : Нет

Текст #21
Идентификатор                            : 24
Формат                                   : UTF-8
Идентификатор кодека                     : S_TEXT/UTF8
Идентификатор кодека/Информация          : UTF-8 Plain Text
Продолжительность                        : 1 ч. 57 м.
Битрейт                                  : 44 бит/сек
ElementCount                             : 1429
Размер потока                            : 37,9 Кбайт (0%)
Язык                                     : Polish
Default                                  : Нет
Forced                                   : Нет

Текст #22
Идентификатор                            : 25
Формат                                   : UTF-8
Идентификатор кодека                     : S_TEXT/UTF8
Идентификатор кодека/Информация          : UTF-8 Plain Text
Продолжительность                        : 1 ч. 57 м.
Битрейт                                  : 47 бит/сек
ElementCount                             : 1443
Размер потока                            : 41,1 Кбайт (0%)
Язык                                     : Portuguese
Default                                  : Нет
Forced                                   : Нет

Текст #23
Идентификатор                            : 26
Формат                                   : UTF-8
Идентификатор кодека                     : S_TEXT/UTF8
Идентификатор кодека/Информация          : UTF-8 Plain Text
Продолжительность                        : 1 ч. 57 м.
Битрейт                                  : 49 бит/сек
ElementCount                             : 1403
Размер потока                            : 42,3 Кбайт (0%)
Заголовок                                : Brazilian
Язык                                     : Portuguese
Default                                  : Нет
Forced                                   : Нет

Текст #24
Идентификатор                            : 27
Формат                                   : UTF-8
Идентификатор кодека                     : S_TEXT/UTF8
Идентификатор кодека/Информация          : UTF-8 Plain Text
Продолжительность                        : 1 ч. 57 м.
Битрейт                                  : 51 бит/сек
ElementCount                             : 1373
Размер потока                            : 44,3 Кбайт (0%)
Язык                                     : Romanian
Default                                  : Нет
Forced                                   : Нет

Текст #25
Идентификатор                            : 28
Формат                                   : UTF-8
Идентификатор кодека                     : S_TEXT/UTF8
Идентификатор кодека/Информация          : UTF-8 Plain Text
Продолжительность                        : 1 ч. 57 м.
Битрейт                                  : 44 бит/сек
ElementCount                             : 1399
Размер потока                            : 38,2 Кбайт (0%)
Язык                                     : Swedish
Default                                  : Нет
Forced                                   : Нет

Текст #26
Идентификатор                            : 29
Формат                                   : UTF-8
Идентификатор кодека                     : S_TEXT/UTF8
Идентификатор кодека/Информация          : UTF-8 Plain Text
Продолжительность                        : 1 ч. 57 м.
Битрейт                                  : 118 бит/сек
ElementCount                             : 1440
Размер потока                            : 101 Кбайт (0%)
Язык                                     : Thai
Default                                  : Нет
Forced                                   : Нет

Текст #27
Идентификатор                            : 30
Формат                                   : UTF-8
Идентификатор кодека                     : S_TEXT/UTF8
Идентификатор кодека/Информация          : UTF-8 Plain Text
Продолжительность                        : 1 ч. 57 м.
Битрейт                                  : 49 бит/сек
ElementCount                             : 1437
Размер потока                            : 42,5 Кбайт (0%)
Язык                                     : Turkish
Default                                  : Нет
Forced                                   : Нет

Текст #28
Идентификатор                            : 31
Формат                                   : UTF-8
Идентификатор кодека                     : S_TEXT/UTF8
Идентификатор кодека/Информация          : UTF-8 Plain Text
Продолжительность                        : 1 ч. 57 м.
Битрейт                                  : 48 бит/сек
ElementCount                             : 1435
Размер потока                            : 41,5 Кбайт (0%)
Заголовок                                : Simplified
Язык                                     : Chinese
Default                                  : Нет
Forced                                   : Нет

Текст #29
Идентификатор                            : 32
Формат                                   : UTF-8
Идентификатор кодека                     : S_TEXT/UTF8
Идентификатор кодека/Информация          : UTF-8 Plain Text
Продолжительность                        : 1 ч. 57 м.
Битрейт                                  : 48 бит/сек
ElementCount                             : 1445
Размер потока                            : 41,5 Кбайт (0%)
Заголовок                                : Traditional
Язык                                     : Chinese
Default                                  : Нет
Forced                                   : Нет



Скрыт Profile PM
Показать сообщения:    
Ответить на тему

Текущее время: 26-Мар 21:35

Часовой пояс: GMT + 3



Вы не можете начинать темы
Вы не можете отвечать на сообщения
Вы не можете редактировать свои сообщения
Вы не можете удалять свои сообщения
Вы не можете голосовать в опросах
Вы не можете прикреплять файлы к сообщениям
Вы не можете скачивать файлы
Рейтинг торрент трекеров - UpTracker.ru Анализ веб сайта Яндекс.Метрика
службы мониторинга серверов