Loading...
Error

Ангел / El Ángel (Луис Ортега) [2018 г., Драма, криминал, биография, BDRemux] | DUB (iTunes)

Ответить на тему
 
Автор Сообщение

Theseus

Стаж: 9 лет 7 месяцев

Сообщений: 4838

Режим только чтение: НЕТ

post 26-Мар-2019 14:44

Quote

Ангел / El Ángel

Год выхода: 2018
Страна: Аргентина, Испания
Жанр: Драма, криминал, биография
Продолжительность: 01:54:38
Перевод: Профессиональный (полное дублирование) [iTunes]
Субтитры: Английские
Режиссер: Луис Ортега
В ролях: Лоренцо Ферро, Чино Дарин, Даниэль Фанего, Мерседес Моран, Малена Вилла, Сесилия Рот, Sofía Inés Torner, Питер Ланзани, Marcelo Cancemi, Луис Ньекко
О фильме: Карлитосу 17, у него ангельское лицо и дьявольские наклонности. В школе он знакомится с Рамоном, с которым они составляют блистательный и беспощадный дуэт. На пути изощренного воровства и лжи их совместные преступления становятся лучшим самовыражением.


Качество: BDRemux
Контейнер: MKV
Видео кодек: H.264
Аудио кодек: AC3, DTS-HD
Видео: MPEG-4 AVC, 1920x1080, 20.9 Mbps, 23.976 fps
Аудио 1: AC3, 384 kbps, 6 ch, 48.0 KHz [Russian]
Аудио 2: DTS-HD MA, 1649 kbps, 6 ch, 48.0 KHz [Spanish]
General
Unique ID : 216396049067549687190940447459243611842 (0xA2CC5CF27576C890B765AFAB2ABA56C2)
Complete name : El.Angel.2018.BDREMUX.1080p.seleZen.mkv
Format : Matroska
Format version : Version 4
File size : 18.4 GiB
Duration : 1 h 54 min
Overall bit rate mode : Variable
Overall bit rate : 22.9 Mb/s
Movie name : El Angel 2018 from селезень
Encoded date : UTC 2019-03-26 08:40:56
Writing application : mkvmerge v32.0.0 ('Astral Progressions') 64-bit
Writing library : libebml v1.3.7 + libmatroska v1.5.0

Video
ID : 1
Format : AVC
Format/Info : Advanced Video Codec
Format profile : High@L4.1
Format settings : CABAC / 4 Ref Frames
Format settings, CABAC : Yes
Format settings, ReFrames : 4 frames
Codec ID : V_MPEG4/ISO/AVC
Duration : 1 h 54 min
Bit rate mode : Variable
Bit rate : 20.9 Mb/s
Maximum bit rate : 36.0 Mb/s
Width : 1 920 pixels
Height : 1 080 pixels
Display aspect ratio : 16:9
Frame rate mode : Constant
Frame rate : 24.000 FPS
Color space : YUV
Chroma subsampling : 4:2:0
Bit depth : 8 bits
Scan type : Progressive
Bits/(Pixel*Frame) : 0.420
Stream size : 16.7 GiB (91%)
Language : English
Default : Yes
Forced : No

Audio #1
ID : 2
Format : AC-3
Format/Info : Audio Coding 3
Commercial name : Dolby Digital
Codec ID : A_AC3
Duration : 1 h 54 min
Bit rate mode : Constant
Bit rate : 384 kb/s
Channel(s) : 6 channels
Channel layout : L R C LFE Ls Rs
Sampling rate : 48.0 kHz
Frame rate : 31.250 FPS (1536 SPF)
Bit depth : 16 bits
Compression mode : Lossy
Stream size : 315 MiB (2%)
Title : iTunes
Language : Russian
Service kind : Complete Main
Default : Yes
Forced : No

Audio #2
ID : 3
Format : DTS XLL
Format/Info : Digital Theater Systems
Commercial name : DTS-HD Master Audio
Codec ID : A_DTS
Duration : 1 h 54 min
Bit rate mode : Variable
Bit rate : 1 649 kb/s
Channel(s) : 6 channels
Channel layout : C L R Ls Rs LFE
Sampling rate : 48.0 kHz
Frame rate : 93.750 FPS (512 SPF)
Bit depth : 16 bits
Compression mode : Lossless
Stream size : 1.32 GiB (7%)
Title : Original
Language : Spanish
Default : No
Forced : No

Text
ID : 4
Format : UTF-8
Codec ID : S_TEXT/UTF8
Codec ID/Info : UTF-8 Plain Text
Duration : 1 h 46 min
Bit rate : 32 b/s
Count of elements : 867
Stream size : 25.3 KiB (0%)
Language : English
Default : No
Forced : No

Menu
00:00:00.000 : :Chapter 01
00:08:13.833 : :Chapter 02
00:14:23.792 : :Chapter 03
00:23:42.292 : :Chapter 04
00:31:55.542 : :Chapter 05
00:42:42.000 : :Chapter 06
00:54:50.000 : :Chapter 07
01:02:07.375 : :Chapter 08
01:14:52.000 : :Chapter 09
01:23:13.375 : :Chapter 10
01:34:37.625 : :Chapter 11
01:40:30.083 : :Chapter 12



Скрыт Profile PM
Показать сообщения:    
Ответить на тему

Текущее время: 23-Апр 23:05

Часовой пояс: GMT + 3



Вы не можете начинать темы
Вы не можете отвечать на сообщения
Вы не можете редактировать свои сообщения
Вы не можете удалять свои сообщения
Вы не можете голосовать в опросах
Вы не можете прикреплять файлы к сообщениям
Вы не можете скачивать файлы
Рейтинг торрент трекеров - UpTracker.ru Анализ веб сайта Яндекс.Метрика
службы мониторинга серверов