Loading...
Error

Стекло / Glass (М. Найт Шьямалан) [2019 г., Фантастика, триллер, драма, детектив, WEBRip 2160p] [HEVC] [UKR/ENG]

Ответить на тему
 
Автор Сообщение

Theseus

Стаж: 9 лет 7 месяцев

Сообщений: 4838

Режим только чтение: НЕТ

post 04-Апр-2019 16:20

Quote

Стекло / Glass

Год выхода: 2019
Страна: США
Жанр: Фантастика, триллер, драма, детектив
Продолжительность: 02:09:02
Перевод: Украинский дубляж (Чистый звук)
Субтитры: Английские
Режиссер: М. Найт Шьямалан
В ролях: Джеймс МакЭвой, Брюс Уиллис, Сэмюэл Л. Джексон, Сара Полсон, Аня Тейлор-Джой, Спенсер Трит Кларк, Чарлэйн Вудард, Люк Кирби, Адам Дэвид Томпсон, М. Найт Шьямалан
О фильме: В поисках встречи с обладающим фантастическими способностями и снова убивающем девушек Зверем Дэвид Данн выходит на след Кевина Крамба. Но решающая схватка не успевает состояться, наших героев ловят и отправляют в психиатрическую больницу. Там уже содержится хрупкий человек Элайджа Прайс, несколько лет устроивший крушение поезда, единственным выжившем в котором оказался Дэвид. Психиатр Элли Стэйпл пытается убедить этих трёх пациентов, что они не обладают сверхспособностями, и всему можно найти рациональное объяснение.

Качество: WEBRip 2160p
Формат: MKV
Видео кодек: H.265
Аудио кодек: AC3
Видео: HEVC, 3840x1608 (2.40:1), 23.976 fps, 10.2 Mb/s, 10 bits
Аудио #1: AC3, 48.0 kHz, 2 ch, 384 kb/s | UKR
Аудио #2: AC3, 48.0 kHz, 6 ch, 640 kb/s | ENG
Рекламы нет | Сэмпл

Код:

General
Unique ID                                : 214675246092140636742409092271328010240 (0xA180F2CF5F64DA3CBF77713C06352000)
Complete name                            : Glass 2019.WEBRip.2160p.HEVC.Ukr.Eng.mkv
Format                                   : Matroska
Format version                           : Version 4
File size                                : 10.1 GiB
Duration                                 : 2 h 9 min
Overall bit rate                         : 11.3 Mb/s
Encoded date                             : UTC 2019-04-04 13:24:52
Writing application                      : mkvmerge v8.3.0 ('Over the Horizon') 64bit
Writing library                          : libebml v1.3.1 + libmatroska v1.4.2

Video
ID                                       : 1
Format                                   : HEVC
Format/Info                              : High Efficiency Video Coding
Format profile                           : Main 10@L5.1@High
Codec ID                                 : V_MPEGH/ISO/HEVC
Duration                                 : 2 h 9 min
Bit rate                                 : 10.2 Mb/s
Width                                    : 3 840 pixels
Height                                   : 1 608 pixels
Display aspect ratio                     : 2.40:1
Frame rate mode                          : Constant
Frame rate                               : 23.976 (24000/1001) FPS
Color space                              : YUV
Chroma subsampling                       : 4:2:0
Bit depth                                : 10 bits
Bits/(Pixel*Frame)                       : 0.069
Stream size                              : 9.22 GiB (91%)
Language                                 : English
Default                                  : Yes
Forced                                   : No
Color range                              : Limited
Color primaries                          : BT.709
Transfer characteristics                 : BT.709
Matrix coefficients                      : BT.709

Audio #1
ID                                       : 2
Format                                   : AC-3
Format/Info                              : Audio Coding 3
Commercial name                          : Dolby Digital
Codec ID                                 : A_AC3
Duration                                 : 2 h 9 min
Bit rate mode                            : Constant
Bit rate                                 : 384 kb/s
Channel(s)                               : 2 channels
Channel layout                           : L R
Sampling rate                            : 48.0 kHz
Frame rate                               : 31.250 FPS (1536 SPF)
Bit depth                                : 16 bits
Compression mode                         : Lossy
Stream size                              : 354 MiB (3%)
Language                                 : Ukrainian
Service kind                             : Complete Main
Default                                  : Yes
Forced                                   : No

Audio #2
ID                                       : 3
Format                                   : E-AC-3
Format/Info                              : Enhanced AC-3
Commercial name                          : Dolby Digital Plus
Codec ID                                 : A_EAC3
Duration                                 : 2 h 9 min
Bit rate mode                            : Constant
Bit rate                                 : 640 kb/s
Channel(s)                               : 6 channels
Channel layout                           : L R C LFE Ls Rs
Sampling rate                            : 48.0 kHz
Frame rate                               : 31.250 FPS (1536 SPF)
Compression mode                         : Lossy
Stream size                              : 591 MiB (6%)
Language                                 : English
Service kind                             : Complete Main
Default                                  : No
Forced                                   : No

Text #1
ID                                       : 4
Format                                   : UTF-8
Codec ID                                 : S_TEXT/UTF8
Codec ID/Info                            : UTF-8 Plain Text
Duration                                 : 2 h 7 min
Bit rate                                 : 41 b/s
Count of elements                        : 1373
Stream size                              : 39.2 KiB (0%)
Language                                 : English
Default                                  : No
Forced                                   : No

Text #2
ID                                       : 5
Format                                   : UTF-8
Codec ID                                 : S_TEXT/UTF8
Codec ID/Info                            : UTF-8 Plain Text
Duration                                 : 2 h 8 min
Bit rate                                 : 54 b/s
Count of elements                        : 1834
Stream size                              : 51.0 KiB (0%)
Title                                    : SDH
Language                                 : English
Default                                  : No
Forced                                   : No

Menu
00:00:00.000                             : en:1
00:04:09.457                             : en:2
00:09:37.368                             : en:3
00:14:31.078                             : en:4
00:19:50.897                             : en:5
00:24:42.063                             : en:6
00:29:46.826                             : en:7
00:35:01.599                             : en:8
00:39:08.595                             : en:9
00:47:29.220                             : en:10
00:57:17.224                             : en:11
01:02:56.271                             : en:12
01:09:27.829                             : en:13
01:14:31.299                             : en:14
01:21:44.774                             : en:15
01:30:11.530                             : en:16
01:38:16.514                             : en:17
01:44:09.742                             : en:18
01:54:08.215                             : en:19
02:03:01.289                             : en:20



Скрыт Profile PM
Показать сообщения:    
Ответить на тему

Текущее время: 23-Апр 23:03

Часовой пояс: GMT + 3



Вы не можете начинать темы
Вы не можете отвечать на сообщения
Вы не можете редактировать свои сообщения
Вы не можете удалять свои сообщения
Вы не можете голосовать в опросах
Вы не можете прикреплять файлы к сообщениям
Вы не можете скачивать файлы
Рейтинг торрент трекеров - UpTracker.ru Анализ веб сайта Яндекс.Метрика
службы мониторинга серверов