Loading...
Error

Снегоуборщик / Cold Pursuit (Ханс Петтер Муланд) [2019 г., боевик, триллер, драма, криминал, WEB-DL 1080p] MVO [СВ Студия]

Ответить на тему
 
Автор Сообщение

Theseus

Стаж: 9 лет 8 месяцев

Сообщений: 4912

Режим только чтение: НЕТ

post 28-Апр-2019 18:44

Quote

Снегоуборщик / Cold Pursuit

Год выхода: 2019
Страна: Великобритания, Норвегия, Канада, США, Франция
Жанр: боевик, триллер, драма, криминал
Продолжительность: 01:58:29
Перевод: Профессиональный (многоголосый, закадровый) [СВ Студия]
Субтитры: Русские, Английские
Режиссер: Ханс Петтер Муланд
В ролях: Лиам Нисон, Лора Дерн, Эмми Россум, Том Бейтман, Уильям Форсайт, Джулия Джонс, Дэвид О`Хара, Доменик Ломбардоззи, Элисия Ротару, Эмили Мэддисон, Майкл Нисон, Майкл Эклунд, Брэдли Страйкер, Уэсли МакИннес

О фильме: Мистер Коксман — примерный семьянин и уважаемый гражданин, размеренная жизнь которого заканчивается, когда наркоторговцы убивают его сына. В поисках справедливости он с ледяным хладнокровием начинает изощренно убирать бандитов одного за другим.

Качество: WEB-DL 1080p
Формат: MKV
Видео кодек: x.264
Аудио кодек: AC3
Видео: AVC, 1920x800 (2.40:1), 23.976 fps, 4571 kb/s
Аудио #1: AC3, 48.0 KHz, 2 ch, 192 Kbps | RUS
Аудио #2: AC3, 48.0 KHz, 6 ch, 384 Kbps | ENG
Рекламы нет
Сэмпл

Код:

Общее
Уникальный идентификатор : 20920477375112570607966587703219412219 (0xFBD232B843F5F683DD488C835035CFB)
Полное имя : Cold Pursuit.2019.WEB-DL.1080p.mkv
Формат : Matroska
Версия формата : Version 4
Размер файла : 4,28 Гбайт
Продолжительность : 1 ч. 58 м.
Общий поток : 5149 Кбит/сек
Название фильма : Cold Pursuit.2019.WEB-DL.1080p
Дата кодирования : UTC 2019-05-01 23:45:12
Программа кодирования : mkvmerge v23.0.0 ('The Bride Said No') 64-bit
Библиотека кодирования : libebml v1.3.6 + libmatroska v1.4.9

Видео
Идентификатор : 1
Формат : AVC
Формат/Информация : Advanced Video Codec
Профиль формата : High@L4
Настройки формата : CABAC / 5 Ref Frames
Параметр CABAC формата : Да
Параметр RefFrames формата : 5 кадров
Идентификатор кодека : V_MPEG4/ISO/AVC
Продолжительность : 1 ч. 58 м.
Битрейт : 4571 Кбит/сек
Ширина : 1920 пикселей
Высота : 800 пикселей
Соотношение сторон : 2,40:1
Режим частоты кадров : Постоянный
Частота кадров : 23,976 (23976/1000) кадра/сек
Цветовое пространство : YUV
Субдискретизация насыщенности : 4:2:0
Битовая глубина : 8 бит
Тип развёртки : Прогрессивная
Бит/(Пиксели*Кадры) : 0.124
Размер потока : 3,80 Гбайт (89%)
Язык : English
Default : Да
Forced : Нет
Цветовой диапазон : Limited
Основные цвета : BT.709
Характеристики трансфера : BT.709
Коэффициенты матрицы : BT.709

Аудио #1
Идентификатор : 2
Формат : AC-3
Формат/Информация : Audio Coding 3
Коммерческое название : Dolby Digital
Идентификатор кодека : A_AC3
Продолжительность : 1 ч. 58 м.
Вид битрейта : Постоянный
Битрейт : 192 Кбит/сек
Каналы : 2 канала
ChannelLayout : L R
Частота : 48,0 КГц
Частота кадров : 31,250 кадров/сек (1536 SPF)
Битовая глубина : 16 бит
Метод сжатия : С потерями
Задержка видео : -42 мс.
Размер потока : 163 Мбайт (4%)
Заголовок : MVO | СВ Студия
Язык : Russian
ServiceKind : Complete Main
Default : Да
Forced : Нет

Аудио #2
Идентификатор : 3
Формат : AC-3
Формат/Информация : Audio Coding 3
Коммерческое название : Dolby Digital
Идентификатор кодека : A_AC3
Продолжительность : 1 ч. 58 м.
Вид битрейта : Постоянный
Битрейт : 384 Кбит/сек
Каналы : 6 каналов
ChannelLayout : L R C LFE Ls Rs
Частота : 48,0 КГц
Частота кадров : 31,250 кадров/сек (1536 SPF)
Битовая глубина : 16 бит
Метод сжатия : С потерями
Задержка видео : -42 мс.
Размер потока : 327 Мбайт (7%)
Язык : English
ServiceKind : Complete Main
Default : Нет
Forced : Нет

Текст #1
Идентификатор : 4
Формат : UTF-8
Идентификатор кодека : S_TEXT/UTF8
Идентификатор кодека/Информация : UTF-8 Plain Text
Продолжительность : 1 ч. 49 м.
Битрейт : 62 бит/сек
ElementCount : 979
Размер потока : 50,3 Кбайт (0%)
Заголовок : Full (Focs)
Язык : Russian
Default : Нет
Forced : Нет

Текст #2
Идентификатор : 5
Формат : UTF-8
Идентификатор кодека : S_TEXT/UTF8
Идентификатор кодека/Информация : UTF-8 Plain Text
Продолжительность : 1 ч. 45 м.
Битрейт : 41 бит/сек
ElementCount : 967
Размер потока : 31,8 Кбайт (0%)
Заголовок : Full
Язык : English
Default : Нет
Forced : Нет

Меню
00:00:00.000 : en:1
00:07:36.000 : en:2
00:16:32.000 : en:3
00:24:06.000 : en:4
00:33:07.000 : en:5
00:43:00.000 : en:6
00:51:34.000 : en:7
01:01:28.000 : en:8
01:10:00.000 : en:9
01:19:16.000 : en:10
01:29:48.000 : en:11
01:37:28.000 : en:12
01:45:32.000 : en:13
01:50:14.000 : en:14



Скрыт Profile PM

Theseus

Стаж: 9 лет 8 месяцев

Сообщений: 4912

Режим только чтение: НЕТ

post 02-Май-2019 15:09 (спустя 3 дня)

Quote

02.05.19 Замена на WEB-DL
Скрыт Profile PM
Показать сообщения:    
Ответить на тему

Текущее время: 22-Май 20:48

Часовой пояс: GMT + 3



Вы не можете начинать темы
Вы не можете отвечать на сообщения
Вы не можете редактировать свои сообщения
Вы не можете удалять свои сообщения
Вы не можете голосовать в опросах
Вы не можете прикреплять файлы к сообщениям
Вы не можете скачивать файлы
Рейтинг торрент трекеров - UpTracker.ru Анализ веб сайта Яндекс.Метрика
службы мониторинга серверов